<?xml version="1.0" standalone="no"?>
<!DOCTYPE svg PUBLIC "-//W3C//DTD SVG 1.1//EN" "http://www.w3.org/Graphics/SVG/1.1/DTD/svg11.dtd" >
<svg xmlns="http://www.w3.org/2000/svg">
<metadata></metadata>
<defs>
<font id="pontano_sansregular" horiz-adv-x="1020" >
<font-face units-per-em="2048" ascent="1638" descent="-410" />
<missing-glyph horiz-adv-x="450" />
<glyph unicode="&#x31;&#x2f;&#x34;" horiz-adv-x="1403" d="M68 52l78 -66l1235 1429l-77 66zM302 1365v-596h113v695h-103l-148 -67l21 -90zM707 152h351v-152h115v152h100v82h-100v459h-146l-320 -473v-68zM1058 234h-237l237 351v-351z" />
<glyph unicode="&#x31;&#x2f;&#x32;" horiz-adv-x="1361" d="M86 -14l1235 1429l-77 66l-1236 -1429zM302 1365v-596h113v695h-103l-148 -67l21 -90zM1231 0v80h-330q24 41 68.5 81t87 71t82.5 67.5t65 86.5t25 111q0 101 -71.5 158t-167.5 57q-85 0 -154.5 -44.5t-100.5 -130.5q7 -3 29.5 -14t41.5 -21l19 -10q13 59 60 92t104 33 q55 0 93.5 -33t38.5 -94v-3q0 -35 -26.5 -73t-66.5 -70.5t-87 -72.5t-87.5 -78t-68 -89t-29.5 -104h475z" />
<glyph unicode="&#x33;&#x2f;&#x34;" horiz-adv-x="1441" d="M189 -14l1235 1429l-77 66l-1236 -1429zM1096 152v-152h115v152h100v82h-100v459h-146l-320 -473v-68h351zM859 234l237 351v-351h-237zM581 1308q0 71 -58.5 122t-159.5 51q-67 0 -129.5 -32.5t-83.5 -90.5l73 -51q20 44 59 66.5t82 22.5q54 0 80.5 -26.5t26.5 -71.5 q0 -54 -34 -84.5t-119 -31.5v-87q188 0 188 -142q0 -46 -36.5 -82.5t-93.5 -36.5q-132 0 -168 116l-78 -40q20 -82 89 -123t150 -42q118 0 184.5 64t61.5 151q-8 141 -156 184q58 21 90 66.5t32 97.5z" />
<glyph unicode="&#xfb01;" horiz-adv-x="1071" d="M793 1242v179h141v-179h-141zM468 1365q-25 0 -42.5 -6.5t-28.5 -23t-17 -32t-9 -47t-3.5 -53.5t-0.5 -66v-114h570v-1023h-142v917h-428v-918h-142v918h-173v106h173v117q0 171 53 251t181 80q81 0 156 -41l-34 -92q-72 27 -113 27z" />
<glyph unicode="&#xfb02;" horiz-adv-x="1072" d="M468 1365q-25 0 -42.5 -6.5t-28.5 -23t-17 -32t-9 -47t-3.5 -53.5t-0.5 -66v-114h428v451h142v-1474h-142v917h-428v-918h-142v918h-173v106h173v117q0 171 53 251t181 80q81 0 156 -41l-34 -92q-72 27 -113 27z" />
<glyph horiz-adv-x="0" />
<glyph horiz-adv-x="682" />
<glyph unicode="&#xd;" horiz-adv-x="1069" />
<glyph unicode=" "  horiz-adv-x="450" />
<glyph unicode="&#x09;" horiz-adv-x="450" />
<glyph unicode="&#xa0;" horiz-adv-x="450" />
<glyph unicode="!" horiz-adv-x="428" d="M191 305l-53 1159h169l-57 -1159h-59zM138 197h164v-197h-164v197z" />
<glyph unicode="&#x22;" horiz-adv-x="510" d="M457 1464l-51 -464h-51l-52 464h154zM53 1464h154l-51 -464h-51z" />
<glyph unicode="#" horiz-adv-x="1221" d="M278 1l-134 -1l111 551h-204l29 98h195l51 252h-206l29 98h197l94 464l139 1l-96 -465h325l94 464l139 1l-96 -465h230l-29 -98h-221l-52 -252h233l-29 -98h-224l-113 -550l-134 -1l111 551h-326zM463 901l-52 -252h326l51 252h-325z" />
<glyph unicode="$" horiz-adv-x="1323" d="M642 871q-56 18 -91 31t-80 36t-71 47.5t-44.5 61.5t-18.5 81q0 110 84 168t221 66v-491zM731 103v589q71 -25 116.5 -45t89.5 -46.5t68 -55t38.5 -68t14.5 -89.5q0 -72 -27 -126.5t-74 -87t-102.5 -49.5t-120.5 -22h-3zM642 -201h89v178q223 12 351.5 121t128.5 295 q0 53 -11.5 98.5t-29 80.5t-50.5 67t-65 54.5t-84 48.5t-95 43.5t-110 43.5q-3 1 -15.5 6t-19.5 7v521q127 -9 211.5 -69t131.5 -146l104 76q-81 124 -189 186t-258 70v194h-89v-193q-90 -4 -170.5 -28t-146 -67.5t-103.5 -113t-38 -156.5q0 -49 13 -91.5t33.5 -74t55 -60.5 t67 -48.5t80 -40.5t84.5 -34.5t89 -31.5q8 -3 12 -4q16 -6 24 -8v-621q-337 17 -421 324l-123 -53q19 -103 75.5 -181.5t135 -123t162 -66.5t171.5 -26v-177z" />
<glyph unicode="%" horiz-adv-x="1677" d="M268 -14l1235 1429l-77 66l-1236 -1429zM357 1466q96 0 166.5 -51.5t103.5 -128.5t33 -166q0 -90 -33 -167t-103.5 -128t-166.5 -51q-145 0 -226 102t-81 242q0 90 33.5 167.5t105 129t168.5 51.5zM357 1374q-93 0 -144.5 -74t-51.5 -177q0 -104 52 -179.5t144 -75.5 q90 0 140.5 75.5t50.5 178.5q0 65 -20.5 121t-65 93.5t-105.5 37.5zM1325 692q96 0 167 -51.5t103.5 -128.5t32.5 -166q0 -90 -32.5 -167t-103 -128t-167.5 -51q-98 0 -169.5 51t-104 127t-32.5 166q0 66 19.5 127.5t56.5 111t97 79.5t133 30zM1325 599q-93 0 -144.5 -74 t-51.5 -176q0 -66 21.5 -123t67 -95t107.5 -38q90 0 141 76t51 179q0 65 -20.5 120.5t-65.5 93t-106 37.5z" />
<glyph unicode="&#x26;" horiz-adv-x="1430" d="M1010 1211q0 131 -95 204.5t-242 73.5q-142 0 -245 -75t-103 -204q0 -88 39 -167t120 -170q-179 -71 -282.5 -187t-103.5 -273q0 -185 135.5 -312t348.5 -127q298 0 506 221q16 -16 53 -54t59.5 -60.5t56.5 -53.5t63 -55l73 85q-43 37 -76.5 70.5t-76.5 81t-71 76.5 q107 205 142 497l-130 19q-15 -103 -24.5 -161t-32 -135t-50.5 -124l-397 455q164 82 248.5 169.5t84.5 205.5zM609 917q-150 162 -150 292q0 82 66 132t153 50q83 0 143.5 -50t60.5 -136q0 -34 -10.5 -65t-38 -68t-84 -76.5t-140.5 -78.5zM603 85q-91 0 -162 28.5t-113 77 t-63 106.5t-21 122q0 112 72.5 198.5t240.5 167.5q44 -49 134.5 -151.5t168.5 -190.5t142 -160q-78 -97 -184 -147.5t-215 -50.5z" />
<glyph unicode="'" horiz-adv-x="280" d="M173 1000h-51l-52 464h154z" />
<glyph unicode="(" horiz-adv-x="602" d="M523 1587l37 -105q-375 -106 -375 -779q0 -676 375 -776l-37 -107q-229 55 -359 274t-130 609t130.5 610t358.5 274z" />
<glyph unicode=")" horiz-adv-x="602" d="M79 -180l-37 105q375 106 375 779q0 676 -375 776l37 107q229 -55 359 -274t130 -609t-130.5 -610t-358.5 -274z" />
<glyph unicode="*" horiz-adv-x="826" d="M463 762h-100l10 287l-265 -155l-47 88l275 130l-276 130l47 88l266 -155l-10 288h100l-10 -287l265 155l47 -88l-275 -130l276 -130l-47 -88l-266 155z" />
<glyph unicode="+" horiz-adv-x="860" d="M72 673v100h304v327h102v-327h300v-100h-300v-323h-102v323h-304z" />
<glyph unicode="," horiz-adv-x="445" d="M100 219h200v-85q-5 -153 -19 -212q-27 -114 -118 -176l-49 62q27 21 52.5 74.5t27.5 133.5l-94 13v190z" />
<glyph unicode="-" horiz-adv-x="724" d="M100 400v111h500v-111h-500z" />
<glyph unicode="." horiz-adv-x="434" d="M135 215h164v-215h-164v215z" />
<glyph unicode="/" horiz-adv-x="592" d="M152 -35l-109 27l415 1542l117 -27z" />
<glyph unicode="0" horiz-adv-x="1246" d="M623 -25q125 0 223 55t160 155t94 236.5t32 302.5q0 167 -32 306t-94.5 242.5t-160 161t-222.5 57.5t-222.5 -57.5t-160 -161t-94.5 -242.5t-32 -306q0 -166 32 -302.5t94 -236.5t160 -155t223 -55zM623 1374q114 0 195 -84.5t120 -229.5t39 -336q0 -186 -37.5 -325.5 t-118.5 -222.5t-198 -83t-198 83t-118.5 222.5t-37.5 325.5q0 191 39 336t120 229.5t195 84.5z" />
<glyph unicode="1" horiz-adv-x="592" d="M288 1328v-1328h146v1464h-129l-247 -100l44 -116z" />
<glyph unicode="2" horiz-adv-x="1137" d="M185 1089q128 281 389 281q127 0 216.5 -82.5t89.5 -225.5q0 -88 -42 -169.5t-110 -148t-150 -131t-164.5 -131.5t-151.5 -136.5t-114 -159t-48 -186.5h919v121h-739q32 64 92.5 129.5t129 121t145 114.5t145.5 121t125 129.5t89.5 150.5t33.5 173q0 110 -39.5 195 t-107.5 135.5t-152 76t-179 25.5q-172 0 -298 -84.5t-208 -266.5z" />
<glyph unicode="3" horiz-adv-x="1092" d="M926 1152q0 153 -104.5 247t-286.5 94q-261 0 -412 -237l106 -64q118 189 313 189q117 0 179 -71t62 -170q0 -55 -15.5 -100.5t-52 -87t-106.5 -65t-168 -23.5v-113q199 0 303 -84t104 -271q0 -122 -83.5 -212t-231.5 -90q-236 0 -320 264l-124 -42q22 -89 69 -156.5 t109.5 -106.5t132 -58t145.5 -19q106 0 193.5 37.5t143 98.5t85.5 136.5t30 154.5q0 144 -77.5 257t-235.5 158q121 39 181.5 130t60.5 204z" />
<glyph unicode="4" horiz-adv-x="1206" d="M131 464l542 1000h204v-997h255v-110h-254v-357h-140v357h-607v107zM738 1332l-446 -865h446v865z" />
<glyph unicode="5" horiz-adv-x="1163" d="M608 928q117 0 208 -38.5t145.5 -104.5t82.5 -148.5t28 -175.5q0 -83 -21 -157t-62.5 -133.5t-99.5 -102.5t-136.5 -66.5t-169.5 -23.5q-169 0 -293.5 81.5t-190.5 249.5l124 50q57 -124 149.5 -194t201.5 -70q83 0 150.5 29.5t110 79.5t65.5 114t23 135 q0 69 -20.5 131.5t-59 113t-101 80.5t-140.5 30q-163 0 -326 -123l-91 59l96 720h701v-127h-570l-69 -481l5 2q126 70 260 70z" />
<glyph unicode="6" horiz-adv-x="1202" d="M290 828q164 118 332 118q93 0 176 -30t147 -86t101 -145.5t37 -200.5q0 -76 -19 -149t-58 -138t-93 -114t-129 -78t-161 -29q-127 0 -222.5 50t-156 144.5t-90.5 227.5t-30 302q0 185 38.5 334.5t107 249.5t163.5 153.5t208 53.5q150 0 322 -95l-41 -111 q-155 87 -279 87q-102 0 -176.5 -59t-120 -181.5t-56.5 -303.5zM284 698q-1 -26 -1 -91q0 -68 6.5 -128t21.5 -119.5t41 -106.5t63 -84t90 -57t118 -20q63 0 118.5 26.5t98 75t67.5 122.5t25 164q0 92 -24 160t-67.5 108t-98.5 59.5t-121 19.5q-81 0 -170 -35.5t-167 -93.5z " />
<glyph unicode="7" horiz-adv-x="948" d="M148 1348l-12 116h738v-113l-557 -1352l-158 2l563 1347h-574z" />
<glyph unicode="8" horiz-adv-x="1160" d="M501 716q-113 -68 -175 -162t-62 -187q0 -56 21.5 -107t61 -90.5t101 -63t136.5 -23.5q60 0 118 19t105.5 53.5t77 90t29.5 122.5q0 46 -12.5 85t-31.5 68.5t-52 55.5t-63.5 44.5t-78 37t-84 30t-91.5 27.5zM106 351q0 238 292 408q-48 22 -91 52t-86 72t-68.5 98.5 t-25.5 119.5q0 58 13.5 109t37.5 90.5t58 71.5t74.5 54t87 37t95.5 22t101 7q75 0 141.5 -14t124.5 -45t99.5 -76t65.5 -111t24 -147q0 -69 -30.5 -131.5t-77.5 -105t-90.5 -70t-82.5 -41.5q75 -36 128.5 -74.5t85 -73.5t50 -77t24.5 -78.5t6 -82.5q0 -62 -20.5 -119 t-62.5 -106t-100 -85.5t-137.5 -57.5t-172.5 -21q-104 0 -192.5 31t-147 83t-91 119.5t-32.5 141.5zM659 792q240 120 240 309q0 70 -24.5 124.5t-67 87.5t-96.5 49.5t-117 16.5q-47 0 -91.5 -9t-85.5 -30t-71.5 -52t-49 -78.5t-18.5 -105.5q0 -31 7 -58.5t17 -49.5t30 -43 t37 -36t47.5 -31t52 -26t60.5 -24.5t62.5 -22t67.5 -21.5z" />
<glyph unicode="9" horiz-adv-x="1197" d="M912 643q-51 -38 -103.5 -64t-107.5 -40t-110 -14q-96 0 -180.5 30t-150 86t-103.5 145.5t-38 200.5q0 64 12 124.5t35.5 117.5t62.5 104.5t89.5 83t119 55.5t149.5 20q248 0 367 -182.5t119 -538.5q0 -190 -38 -340.5t-106.5 -248.5t-163.5 -149.5t-210 -51.5 q-151 0 -328 94l41 111q159 -87 282 -87q157 0 251.5 138t110.5 406zM918 773q1 24 1 91t-6.5 126.5t-21.5 118.5t-41.5 105.5t-63 83t-90 56.5t-118.5 20q-63 0 -118.5 -26t-98 -74t-67 -121.5t-24.5 -161.5q0 -92 25 -160.5t70 -108.5t102 -59t126 -19q77 0 163 35t162 94 z" />
<glyph unicode=":" horiz-adv-x="482" d="M332 387v-216h-173v216h173zM159 1024h173v-216h-173v216z" />
<glyph unicode=";" horiz-adv-x="478" d="M150 219h200v-85q-5 -153 -19 -212q-28 -114 -118 -176l-49 62q27 21 52.5 74.5t27.5 133.5l-94 13v190zM332 1024v-216h-173v216h173z" />
<glyph unicode="&#x3c;" horiz-adv-x="1051" d="M998 241v-138l-949 366v126l949 355v-152l-787 -273z" />
<glyph unicode="=" horiz-adv-x="820" d="M135 550v100h550v-100h-550zM135 300v100h550v-100h-550z" />
<glyph unicode="&#x3e;" horiz-adv-x="1051" d="M53 812v138l949 -366v-126l-949 -355v152l787 273z" />
<glyph unicode="?" horiz-adv-x="1010" d="M795 1089q0 -70 -22 -129t-65 -117t-92.5 -117t-119.5 -158t-130 -210h149q55 94 123.5 185t117.5 150t94 122.5t68 131.5t23 147q0 75 -25.5 143.5t-76.5 126.5t-139 92.5t-203 34.5q-310 0 -462 -241l99 -73q130 203 354 203q84 0 146.5 -25t96 -68.5t49 -92.5 t15.5 -105zM350 0h164v215h-164v-215z" />
<glyph unicode="@" horiz-adv-x="1704" d="M1091 252q-35 -53 -72.5 -89t-78.5 -57t-83 -30t-93 -9q-52 0 -98 13.5t-80.5 38.5t-61.5 58.5t-44.5 73.5t-26 84t-8.5 90q0 95 31 187t84.5 164t134 116.5t171.5 44.5q136 0 279 -93l25 73h98l-92 -591q0 -31 14 -59t37 -45t49 -17q21 0 41.5 8t40 24.5t37 41t32 58 t24.5 73.5t16 90.5t6 107.5q0 99 -32 186t-87.5 151.5t-129.5 111.5t-160.5 70.5t-177.5 23.5q-65 0 -127 -12.5t-115.5 -36t-102 -56t-89 -72.5t-74.5 -86.5t-59 -97.5t-43 -104.5t-27 -108.5t-9 -110q0 -237 130 -393q162 -193 469 -194q186 0 409 90l40 -75 q-236 -118 -446 -118q-146 0 -267.5 38.5t-205.5 104.5t-142.5 155.5t-85.5 190t-27 210.5q0 115 32.5 227t98 211.5t155.5 176t215 121t268 44.5q111 0 216.5 -30.5t194 -89t155 -138t104.5 -183.5t38 -219q0 -59 -7 -112.5t-19.5 -98.5t-30.5 -83.5t-40.5 -68t-49 -53 t-56.5 -38.5t-62.5 -22.5t-67.5 -7.5q-31 0 -61.5 12t-61 45t-44.5 83zM1123 763q-124 80 -237 80q-93 0 -166 -57t-111.5 -153t-38.5 -211q0 -51 12.5 -96.5t37 -82.5t65 -58.5t93.5 -21.5h1q29 0 62 9.5t71 34.5t70.5 62t59 98t37.5 137z" />
<glyph unicode="A" horiz-adv-x="1218" d="M26 0l486 1464h192l488 -1464h-150l-134 399h-608l-128 -399h-146zM603 1362q-15 -46 -49.5 -158.5t-50.5 -163.5l-169 -532h540l-170 533q-58 180 -101 321z" />
<glyph unicode="B" horiz-adv-x="1295" d="M293 1357v-520h228q60 0 100.5 0.5t88 3t78 6.5t65.5 11t56.5 17t43.5 24.5t35 33.5t23.5 44t15 55.5t4.5 67.5q0 41 -7.5 74.5t-20 58t-34 44t-43 32.5t-54 22.5t-60 14t-69 7.5t-72 3.5t-77.5 0.5h-301zM294 730v-623h314q57 0 96 1.5t91.5 8t87.5 19t73 35t61 54.5 t37.5 80.5t14.5 109.5q0 50 -8.5 90.5t-21.5 71.5t-37 54.5t-47 39.5t-59 27.5t-66.5 17.5t-75.5 9t-79.5 4t-85.5 1h-295zM148 0v1464h439q70 0 127.5 -3.5t119.5 -13.5t109.5 -27t91.5 -45t72.5 -66t45.5 -92.5t17 -121.5q0 -258 -271 -305q157 -31 236 -130t79 -247 q0 -123 -38 -203t-123 -126.5t-204 -65t-298 -18.5h-403z" />
<glyph unicode="C" horiz-adv-x="1350" d="M738 1491q199 0 338.5 -98.5t192.5 -290.5l-134 -31q-36 140 -136 221.5t-266 81.5q-249 0 -357.5 -162t-108.5 -474q0 -133 13.5 -232t46.5 -179t86.5 -130.5t133.5 -77t189 -26.5q311 0 413 284l125 -39q-60 -181 -203.5 -272t-342.5 -91q-310 0 -462 181.5t-152 581.5 q0 386 163 569.5t461 183.5z" />
<glyph unicode="D" horiz-adv-x="1400" d="M653 1350h-359v-1236h303q155 0 259 33.5t168.5 110.5t92 192t27.5 287q0 154 -23 262.5t-78 190t-151.5 121t-238.5 39.5zM148 1464h504q159 0 274 -37.5t197.5 -122t123 -225t40.5 -341.5q0 -266 -70 -429t-209.5 -236t-362.5 -73h-497v1464zM706 1464zM700 1464z M700 1464zM700 1464z" />
<glyph unicode="E" horiz-adv-x="1143" d="M1128 0h-980v1464h969v-112h-823v-514h716v-115h-716v-610h834v-113z" />
<glyph unicode="F" horiz-adv-x="1094" d="M1117 1352h-823v-522h715v-114h-715v-716h-146v1464h969v-112z" />
<glyph unicode="G" horiz-adv-x="1374" d="M735 1491q173 0 306 -86.5t195 -254.5l-122 -54q-103 278 -380 278q-245 0 -356 -162t-111 -491q0 -155 23.5 -268.5t75.5 -195.5t140 -123t213 -41q65 0 130.5 21.5t123.5 63t94.5 111t36.5 155.5v220h-372v125h516v-208l-10 -581h-93l-32 191q-57 -95 -167.5 -155 t-244.5 -60q-587 0 -587 746q0 202 44 351t126.5 240t194.5 134.5t256 43.5z" />
<glyph unicode="H" horiz-adv-x="1457" d="M1164 836v628h145v-1464h-145v720h-870v-720h-146v1464h146v-628h870z" />
<glyph unicode="I" horiz-adv-x="464" d="M309 0h-146v1464h146v-1464z" />
<glyph unicode="J" horiz-adv-x="954" d="M21 334l130 35q31 -138 91 -207t175 -69q58 0 102 16.5t71.5 49.5t44.5 69.5t25 93t10.5 103.5t2.5 116v923h145v-920q0 -294 -92.5 -431.5t-320.5 -137.5q-313 0 -384 359z" />
<glyph unicode="K" horiz-adv-x="1252" d="M1180 1466l-515 -540l579 -926h-167l-515 828l-268 -275v-553h-146v1466h146v-740l709 740h177z" />
<glyph unicode="L" d="M1041 0h-893v1464h146v-1351h747v-113z" />
<glyph unicode="M" horiz-adv-x="1645" d="M148 0v1463h211l467 -1058l480 1057h191v-1462h-134v1275l-475 -1025h-135l-466 1031v-1281h-139z" />
<glyph unicode="N" horiz-adv-x="1491" d="M148 0v1464h163l903 -1243v393v850h129v-1464h-132l-930 1290v-415v-875h-133z" />
<glyph unicode="O" horiz-adv-x="1449" d="M723 1491q146 0 256.5 -42t191.5 -130t122.5 -233.5t41.5 -344.5q0 -400 -155 -583t-458 -183q-147 0 -257 42t-190 132t-120.5 238t-40.5 353q0 200 41.5 345.5t121.5 234t190.5 130t255.5 41.5zM722 1374q-104 0 -182.5 -29t-130 -81.5t-83.5 -132.5t-45.5 -174.5 t-13.5 -215.5q0 -337 104 -492.5t352 -155.5q249 0 353 154t104 493q0 121 -13.5 216t-46 175t-84.5 132.5t-130.5 81.5t-183.5 29z" />
<glyph unicode="P" horiz-adv-x="1253" d="M148 0v1464h431q358 0 505 -89.5t147 -311.5q0 -102 -25.5 -174.5t-76.5 -122.5t-138.5 -78.5t-199.5 -40.5t-271 -12h-222v-635h-150zM304 1350v-602h272q114 0 193 8.5t142 28.5t99 55t54.5 87.5t18.5 127.5t-19 126.5t-55.5 85t-102.5 51.5t-147 25t-203 7h-252z" />
<glyph unicode="Q" horiz-adv-x="1449" d="M1266 -345l-250 375q-41 -19 -88 -31t-98 -18t-108 -6q-147 0 -257 42t-190 132t-120.5 238t-40.5 353q0 200 41.5 345.5t121.5 234t190.5 130t255.5 41.5q146 0 256.5 -42t191.5 -130t122.5 -233.5t41.5 -344.5q0 -467 -219 -647l258 -357zM722 1374q-104 0 -182.5 -29 t-130 -81.5t-83.5 -132.5t-45.5 -174.5t-13.5 -215.5q0 -337 104 -492.5t352 -155.5q249 0 353 154t104 493q0 121 -13.5 216t-46 175t-84.5 132.5t-130.5 81.5t-183.5 29z" />
<glyph unicode="R" horiz-adv-x="1286" d="M1214 1075q0 -150 -77.5 -243.5t-238.5 -136.5l340 -695h-156l-332 673h-457v-673h-145v1464h529q285 0 411 -94.5t126 -294.5zM293 1356v-570h351q72 0 126.5 5t113 23t96 48t61.5 83.5t24 127.5q0 76 -23 129.5t-57.5 83t-91 46t-105.5 20.5t-120 4h-375z" />
<glyph unicode="S" horiz-adv-x="1216" d="M618 1482q177 0 299.5 -59t209.5 -192l-108 -80q-59 104 -159 158.5t-221 54.5q-157 0 -256 -58t-99 -178q0 -47 21 -86t50.5 -64t79 -49t89 -37t98.5 -32t91 -31q67 -26 110 -43.5t95 -43.5t84 -48.5t65 -54.5t50.5 -67t29 -80.5t11.5 -98.5q0 -197 -147.5 -307.5 t-395.5 -110.5q-71 0 -140.5 12t-141 41t-128.5 73t-100.5 114t-59.5 158l123 53q45 -165 157.5 -245t298.5 -80q57 0 109 8.5t102.5 29.5t87.5 52.5t59.5 82t22.5 114.5q0 41 -11 75t-23 58.5t-48 50.5t-57 40.5t-81 38.5t-89.5 34.5t-110.5 38.5q-13 5 -20 7 q-178 62 -248 101q-161 89 -183 234q-3 24 -3 50q0 91 41 163t110.5 115.5t155 65.5t180.5 22z" />
<glyph unicode="T" horiz-adv-x="1119" d="M9 1352v113h1101v-113h-474v-1352h-153v1352h-474z" />
<glyph unicode="U" horiz-adv-x="1346" d="M123 574v890h160v-866q0 -94 9 -165t35 -136.5t69 -107.5t113.5 -66.5t166.5 -24.5t166 24.5t112.5 66.5t68 107.5t34.5 136.5t9 165v866h157v-883q0 -313 -135 -459.5t-418 -146.5q-276 0 -411.5 143.5t-135.5 455.5z" />
<glyph unicode="V" horiz-adv-x="1164" d="M513 0l-501 1464h155l293 -868q11 -32 56.5 -169.5t69.5 -210.5q24 72 69 203t61 177l288 868h148l-501 -1464h-138z" />
<glyph unicode="W" horiz-adv-x="1797" d="M427 0l-415 1462h152q108 -390 179 -657.5t103 -397t44 -173.5q19 63 53.5 175.5t120.5 394t201 658.5h104q51 -189 170 -609t177 -636q48 177 158 600.5t172 643.5l139 1l-415 -1462h-126q-323 1134 -337 1187q-12 -41 -37.5 -122t-113.5 -365t-216 -700h-113z" />
<glyph unicode="X" horiz-adv-x="1245" d="M626 889l403 575h166l-489 -697l533 -767h-173l-446 641l-447 -641h-167l534 763l-489 701h175z" />
<glyph unicode="Y" horiz-adv-x="1162" d="M508 549l-512 915h158l428 -782l427 782h157l-512 -916v-548h-146v549z" />
<glyph unicode="Z" horiz-adv-x="1176" d="M130 1356v108h1006v-81l-908 -1276h913l-7 -107h-1087v98l898 1258h-815z" />
<glyph unicode="[" horiz-adv-x="708" d="M132 -52v1532h458v-106h-313v-1319h313v-107h-458z" />
<glyph unicode="\" horiz-adv-x="632" d="M588 -5h-145l-397 1469h145z" />
<glyph unicode="]" horiz-adv-x="707" d="M119 1374v106h457v-1532h-457v107h312v1319h-312z" />
<glyph unicode="^" horiz-adv-x="1053" d="M241 100h-138l366 899h126l355 -899h-152l-273 737z" />
<glyph unicode="_" horiz-adv-x="870" d="M99 -1h651v-98h-651v98z" />
<glyph unicode="`" horiz-adv-x="496" d="M47 1492h195l205 -319l-94 -1z" />
<glyph unicode="a" horiz-adv-x="1019" d="M746 219q-173 -146 -332 -146q-190 0 -190 192q0 37 11 65t37.5 49.5t57.5 37t85 29t104 23t129 21.5l98 15v-286zM771 0h117v673q0 371 -376 371q-257 0 -380 -156q85 -80 85 -81q50 62 125.5 95t161.5 33q132 0 187 -62.5t55 -229.5v-42l-99 -15q-87 -13 -130 -20.5 t-114 -23t-106.5 -30t-82.5 -40t-69 -56t-38.5 -74t-16.5 -97.5q0 -128 85.5 -198.5t213.5 -70.5q194 0 365 140z" />
<glyph unicode="b" horiz-adv-x="1078" d="M563 940q125 0 201 -119.5t76 -300.5q0 -202 -73.5 -322.5t-201.5 -120.5q-302 0 -302 445q0 94 19 168.5t49 120t70.5 75.5t80 42t81.5 12zM125 0h113l19 161q37 -89 124.5 -137t198.5 -48q193 0 298.5 143.5t105.5 382.5q0 254 -104.5 398t-290.5 144 q-108 0 -193 -45.5t-128 -133.5v237v391h-143v-1493z" />
<glyph unicode="c" horiz-adv-x="981" d="M92 509q0 157 49 276t151 189t246 70q62 0 116.5 -15t106 -49t91 -97t59.5 -150l-119 -32q-32 122 -91.5 180.5t-156.5 58.5q-154 0 -230.5 -114.5t-76.5 -313.5q0 -97 17 -174t51.5 -135.5t92 -90t133.5 -31.5q199 0 268 235l109 -34q-18 -81 -57.5 -142t-92 -96 t-110.5 -51.5t-120 -16.5q-212 0 -324 145.5t-112 387.5z" />
<glyph unicode="d" horiz-adv-x="1066" d="M90 500q0 253 102 398.5t290 145.5q229 0 310 -181v611h143v-1474h-114l-19 172q-39 -90 -124.5 -143t-191.5 -53q-184 0 -290 143.5t-106 380.5zM504 81q45 0 81 7.5t78 33t70 69t46.5 122.5t18.5 186q0 130 -28.5 226t-96.5 155.5t-171 59.5q-127 0 -197 -120.5 t-70 -323.5q0 -182 72 -298.5t197 -116.5z" />
<glyph unicode="e" horiz-adv-x="1027" d="M532 1044q104 0 183.5 -36.5t127.5 -102t72 -151.5t24 -190q0 -34 -3 -60h-699q0 -87 17 -161.5t51.5 -134t94 -93.5t137.5 -34q101 0 166 46.5t92 130.5l110 -24q-23 -85 -81 -144.5t-130 -86t-153 -27.5h-4q-113 0 -200.5 44t-140 119.5t-78.5 170t-26 202.5 q0 239 116.5 385.5t323.5 146.5zM802 597q-1 164 -68 254t-206 90q-67 0 -120 -27t-87.5 -75t-54.5 -109t-26 -133h562z" />
<glyph unicode="f" horiz-adv-x="623" d="M460 1365q-25 0 -42.5 -6.5t-28.5 -23t-17 -32t-9 -47t-3.5 -53.5t-0.5 -66v-114h200v-106h-200v-918h-142v918h-173v106h173v117q0 171 53 251t181 80q81 0 156 -41l-34 -92q-72 27 -113 27z" />
<glyph unicode="g" horiz-adv-x="1077" d="M818 543q0 98 -21 172.5t-51.5 116t-73 67t-79 33.5t-75.5 8q-73 0 -129 -34.5t-88.5 -93.5t-48.5 -130t-16 -152q0 -215 74.5 -332t202.5 -117q45 0 84 9.5t81 37.5t71.5 73.5t49 124.5t19.5 183v34zM527 -429q-266 0 -363 162l83 79q82 -132 287 -132q143 0 213.5 91 t70.5 257v102q-117 -154 -310 -154q-196 0 -305 151.5t-109 398.5q0 151 45.5 266.5t138.5 183.5t224 68q199 0 327 -153l8 132h114v-1003q0 -199 -109.5 -324t-314.5 -125z" />
<glyph unicode="h" horiz-adv-x="1101" d="M602 940q-74 0 -131.5 -25t-94.5 -66.5t-61 -101t-33.5 -124.5t-9.5 -140v-483h-142v1473h142v-420v-191q117 182 351 182q68 0 122.5 -15.5t91 -40.5t63.5 -63t42 -76t24 -87.5t11.5 -89.5t2.5 -89v-583h-142v594q0 171 -52.5 258.5t-183.5 87.5z" />
<glyph unicode="i" horiz-adv-x="410" d="M135 1242v179h141v-179h-141zM137 0v1023h142v-1023h-142z" />
<glyph unicode="j" horiz-adv-x="482" d="M214 -91v1114h142v-1035q0 -85 -7.5 -137t-30 -95t-66.5 -62t-115 -19q-92 0 -162 41l24 107q84 -31 119 -31q47 0 71.5 26t24.5 91zM216 1242v179h141v-179h-141z" />
<glyph unicode="k" horiz-adv-x="1008" d="M797 1023h162l-381 -372l440 -651h-160l-373 565l-213 -196v-369h-142v1477h141v-966z" />
<glyph unicode="l" horiz-adv-x="419" d="M134 0v1474h142v-1474h-142z" />
<glyph unicode="m" horiz-adv-x="1663" d="M268 583v-583h-142v1023h137l4 -162q56 96 142 139.5t184 43.5q114 0 186 -56t100 -156q51 107 144.5 159.5t200.5 52.5q82 0 141.5 -29t93 -72.5t53 -109.5t25 -124.5t5.5 -132.5v-576h-142v607q0 77 -9.5 135t-32 104t-62.5 70t-97 24q-85 0 -154 -52t-105 -131.5 t-36 -165.5v-591h-142v607q0 161 -45 247t-154 86q-87 0 -156 -53.5t-104 -134t-35 -169.5z" />
<glyph unicode="n" horiz-adv-x="1086" d="M127 0v1023h138v-32v-62.5v-70.5v-28q19 55 59 97.5t90.5 67t103.5 37t105 12.5q59 0 107.5 -11t82.5 -32.5t60 -47t42 -62.5t26.5 -70.5t15.5 -78.5t6.5 -79t1.5 -79v-584h-142v603q0 64 -5.5 112t-20.5 90t-39.5 68.5t-63 41.5t-91.5 15q-77 0 -135.5 -22t-96 -60 t-60.5 -94t-32.5 -117.5t-9.5 -137.5v-499h-142z" />
<glyph unicode="o" horiz-adv-x="1064" d="M533 1044q197 0 318 -135.5t121 -395.5q0 -258 -118.5 -397.5t-321.5 -139.5t-321.5 138.5t-118.5 395.5q0 262 121 398t320 136zM532 940q-84 0 -144 -36.5t-91.5 -100.5t-45.5 -135t-14 -155q0 -67 8 -126t29 -116.5t53.5 -98.5t85 -66t120.5 -25q67 0 119.5 25 t85 65.5t53.5 97.5t29 116t8 126q0 66 -8.5 125t-29.5 116t-53.5 97.5t-85 65.5t-119.5 25z" />
<glyph unicode="p" horiz-adv-x="1061" d="M825 521q0 -208 -71 -324t-195 -116q-289 0 -289 438q0 73 5.5 128.5t23.5 113t48.5 95t84 61t126.5 23.5q124 0 195.5 -115.5t71.5 -303.5zM253 1023h-122v-1373h142v371v133q44 -86 123.5 -132t183.5 -46q129 1 218 75t130 193.5t41 275.5q0 112 -23.5 205.5 t-70.5 165.5t-124.5 112.5t-177.5 40.5q-211 0 -310 -186z" />
<glyph unicode="q" horiz-adv-x="1057" d="M481 1044q235 0 316 -182l15 161h117v-1373h-143v362v143q-43 -87 -122 -133t-185 -46q-126 0 -215 72.5t-130.5 193t-41.5 276.5q0 149 41.5 265.5t131 188.5t216.5 72zM502 940q-123 0 -194 -116.5t-71 -301.5q0 -208 69.5 -324.5t191.5 -116.5q290 0 290 420 q0 77 -6.5 137t-25 118.5t-49.5 97t-83 62.5t-122 24z" />
<glyph unicode="r" horiz-adv-x="584" d="M260 1023v-192q28 69 81 114.5t108.5 62t116.5 16.5v-129q-83 0 -143.5 -30t-94 -83t-49 -115t-15.5 -135v-532h-142v1023h138z" />
<glyph unicode="s" horiz-adv-x="929" d="M841 846q-97 -55 -97 -56q-34 78 -95 112.5t-161 34.5q-124 0 -188 -45t-64 -133q0 -35 13.5 -62t35 -44.5t58.5 -32t71.5 -22.5t86.5 -18q174 -32 261.5 -99.5t87.5 -194.5q0 -151 -101 -230.5t-304 -79.5q-61 0 -117.5 12.5t-109 40t-92.5 78t-59 118.5l108 44 q36 -98 100 -142t183 -44q263 0 263 176q0 96 -60 135.5t-253 79.5q-58 12 -97.5 24.5t-82 34.5t-68 50.5t-42 73.5t-16.5 104q0 135 104.5 209t273.5 74q136 0 222 -45t139 -153z" />
<glyph unicode="t" horiz-adv-x="644" d="M594 125l24 -93q-75 -48 -176 -48q-132 0 -191.5 80.5t-59.5 260.5v599h-153v99h162v327l133 37v-364h224v-99h-224v-663q0 -170 138 -170q46 0 123 34z" />
<glyph unicode="u" horiz-adv-x="1118" d="M813 436v587h142v-1023h-138v192q-40 -106 -142.5 -161t-216.5 -55q-65 0 -117.5 15.5t-87 40t-60 63t-39 75.5t-21.5 87.5t-10 89t-2 89.5v587h142v-617q0 -158 49 -238.5t171 -80.5q75 0 135 25t95.5 62.5t59 86t32 92t8.5 83.5z" />
<glyph unicode="v" horiz-adv-x="952" d="M788 1023h138l-394 -1023h-126l-383 1023h152l301 -872z" />
<glyph unicode="w" horiz-adv-x="1487" d="M351 0l-330 1023h152l249 -846l111 338l167 508h94l157 -507l105 -338l267 845h140l-348 -1023h-127l-246 800l-264 -800h-127z" />
<glyph unicode="x" horiz-adv-x="966" d="M405 514l-371 509h154l294 -417l294 417h150l-368 -505l380 -518h-154l-303 420l-300 -420h-150z" />
<glyph unicode="y" horiz-adv-x="985" d="M426 64l-392 959h146l57 -147q57 -146 137 -351t124 -314q86 224 317 812h140q-69 -175 -198.5 -496t-172.5 -430q-36 -91 -62.5 -147.5t-63.5 -113.5t-75.5 -87.5t-92.5 -49.5t-121 -19q-53 0 -105 14l15 113q46 -7 88 -7q169 0 236 197z" />
<glyph unicode="z" horiz-adv-x="878" d="M86 919v104h750v-95l-609 -825h607v-103h-768v94l601 825h-581z" />
<glyph unicode="{" horiz-adv-x="644" d="M35 754q27 2 49 9t38 15.5t28.5 25t20.5 28.5t13.5 36t8 37.5t4 42t1.5 41.5v44q0 65 0.5 97t4 87t10.5 82.5t21 69t34.5 62t51 46.5t71 38t95.5 20.5t122 8.5v-90q-40 0 -70.5 -1.5t-56 -10t-43.5 -14t-33 -24.5t-24 -30.5t-15.5 -44t-9.5 -52t-5 -68t-2 -78v-94.5v-4 q0 -147 -33.5 -225.5t-125.5 -100.5q92 -22 125.5 -100.5t33.5 -225.5q0 -213 12 -276q17 -89 76 -119q53 -26 171 -26v-90q-67 0 -122 8.5t-95.5 20.5t-71 38t-51 46.5t-34.5 62t-21 69t-10.5 82.5t-4 87t-0.5 97v44t-1.5 41.5t-4 42t-8 37.5t-13.5 36t-20.5 28.5t-28.5 25 t-38 15.5t-49 9v94z" />
<glyph unicode="|" horiz-adv-x="416" d="M281 -197h-146v1699h146v-1699z" />
<glyph unicode="}" horiz-adv-x="644" d="M609 753q-27 2 -49 9t-38 15.5t-28.5 25t-20.5 28.5t-13.5 36t-8 37.5t-4 42t-1.5 41.5v44q0 65 -0.5 97t-4 87t-10.5 82.5t-21 69t-34.5 62t-51 46.5t-71 38t-95.5 20.5t-122 8.5v-90q40 0 70.5 -1.5t56 -10t43.5 -14t33 -24.5t24 -30.5t15.5 -44t9.5 -52t5 -68t2 -78 v-94.5v-4q0 -147 33.5 -225.5t125.5 -100.5q-92 -22 -125.5 -100.5t-33.5 -225.5q0 -213 -12 -276q-17 -89 -76 -119q-53 -26 -171 -26v-90q67 0 122 8.5t95.5 20.5t71 38t51 46.5t34.5 62t21 69t10.5 82.5t4 87t0.5 97v44t1.5 41.5t4 42t8 37.5t13.5 36t20.5 28.5t28.5 25 t38 15.5t49 9v94z" />
<glyph unicode="~" horiz-adv-x="962" d="M757 700q86 0 132 54.5t52 191.5h-119q-7 -37 -10 -49t-9 -31.5t-13 -24.5t-18.5 -10t-28.5 -5q-32 0 -239.5 60t-268.5 60q-26 0 -40.5 -0.5t-39 -5.5t-39 -13.5t-33.5 -26t-30 -42.5t-20 -63.5t-12 -87.5h118q14 76 31.5 97t46.5 21q42 0 249.5 -62.5t290.5 -62.5z" />
<glyph unicode="&#xa1;" horiz-adv-x="426" d="M174 1160h76l57 -1160h-185zM139 1268v197h164v-197h-164z" />
<glyph unicode="&#xa2;" horiz-adv-x="993" d="M484 -208h93v186q44 5 85 18.5t80 39t70.5 60t56 84t37.5 109.5l-101 34q-31 -106 -88.5 -166.5t-139.5 -72.5v854q164 -20 221 -237l111 32q-15 64 -41 115.5t-57.5 85.5t-70.5 57.5t-79 35.5t-84 15v211h-93v-211q-127 -13 -216 -85.5t-131.5 -186.5t-42.5 -261 q0 -149 42.5 -263t131.5 -185t216 -83v-186zM484 935v-850q-83 14 -139.5 72.5t-82 147.5t-25.5 207q0 179 61.5 290.5t185.5 132.5z" />
<glyph unicode="&#xa3;" horiz-adv-x="1168" d="M677 42q37 0 69.5 -2t65.5 -7.5t52.5 -9t58 -12t55.5 -12.5l28 130q-145 38 -267 38q-110 0 -208.5 -14t-223.5 -58q22 43 32 65.5t26 73.5t23 116.5t7 151.5q0 25 -14 193h392v102h-399q-2 18 -7 64.5t-8.5 84.5t-3.5 61q0 193 71.5 284.5t224.5 91.5q37 0 67 -8 t65.5 -31.5t61.5 -76.5t39 -133l119 18q-25 167 -108.5 252t-249.5 85q-430 0 -430 -501q0 -27 8.5 -103.5t9.5 -87.5h-167v-102h176q18 -137 18 -170q0 -144 -23.5 -246t-80.5 -219l76 -90q163 41 260 56.5t185 15.5z" />
<glyph unicode="&#xa4;" horiz-adv-x="1068" d="M769 658q0 -110 -64.5 -191.5t-168.5 -81.5q-108 0 -170.5 79.5t-62.5 190.5t62.5 190.5t169.5 79.5t170.5 -79t63.5 -188zM934 246l56 63l-159 140q52 91 52 204q0 141 -78 243l137 156l-64 56l-133 -152q-86 67 -211 67q-152 0 -247 -97l-153 135l-56 -64l158 -138 q-53 -88 -53 -203q0 -142 81 -246l-138 -157l64 -56l134 153q89 -66 211 -66q150 0 245 97z" />
<glyph unicode="&#xa5;" horiz-adv-x="1358" d="M348 544v86h211l-465 806h158l428 -754l427 754h157l-465 -806h203v-86h-250v-124h250v-86h-250v-334h-146v334h-258v86h258v124h-258z" />
<glyph unicode="&#xa6;" horiz-adv-x="416" d="M135 -198v631h146v-631h-146zM281 883h-146v621h146v-621z" />
<glyph unicode="&#xa7;" horiz-adv-x="1005" d="M301 731q0 42 18.5 87t71.5 113q26 -10 67.5 -25.5t63 -23.5t54 -21.5t49 -22t39 -21.5t33.5 -24t22 -25.5t15.5 -30.5t4.5 -34q0 -73 -62 -179q-15 4 -40.5 11t-90.5 29t-114.5 45t-90 56.5t-40.5 65.5zM535 -33q180 0 271.5 73t91.5 213q0 141 -115 218q90 143 90 235 q0 100 -69 160.5t-244 127.5q-145 56 -173 70q-72 38 -84 93q-3 13 -3 29v3q2 89 61 135.5t174 46.5q100 0 156 -32t102 -118l91 57q-55 109 -138.5 154.5t-218.5 45.5q-167 0 -263.5 -73.5t-96.5 -209.5q0 -83 28.5 -130t85.5 -81q-107 -133 -107 -237q0 -100 65.5 -160 t215.5 -114q191 -69 230 -89q60 -32 75 -77q9 -24 10 -64v-6q0 -80 -61 -121.5t-169 -41.5q-246 0 -311 228l-102 -37q11 -65 41.5 -117t71 -85t91.5 -55.5t101.5 -31.5t102.5 -9z" />
<glyph unicode="&#xa8;" horiz-adv-x="860" d="M680 1365v-174h-166v174h166zM135 1365h166v-174h-166v174z" />
<glyph unicode="&#xa9;" horiz-adv-x="1702" d="M856 1247q104 0 174.5 -58t98.5 -174l-71 -18q-41 180 -205 180q-255 0 -255 -378q0 -198 58 -291t198 -93q85 0 135.5 43.5t76.5 125.5l66 -23q-65 -217 -282 -217q-165 0 -249 109t-84 346q0 228 90 338t249 110zM1579 774q0 -196 -98 -363.5t-266 -265.5t-365 -98 q-196 0 -363.5 98t-265.5 265.5t-98 363.5q0 197 98 365t265.5 266t363.5 98q197 0 365 -98t266 -266t98 -365zM849 100q182 0 337.5 90.5t246 245.5t90.5 337q0 137 -53.5 262.5t-143.5 216.5t-214.5 145.5t-261.5 54.5q-136 0 -261 -54.5t-215.5 -145.5t-144 -216.5 t-53.5 -262.5q0 -182 90.5 -337t245.5 -245.5t337 -90.5z" />
<glyph unicode="&#xaa;" horiz-adv-x="946" d="M671 192q-139 -124 -275 -124q-127 0 -127 161q0 74 77 112t249 65l76 13v-227zM676 97l14 -97h104v544q0 162 -77.5 244.5t-224.5 82.5q-76 0 -166 -37.5t-144 -96.5q78 -70 78 -71q46 45 109 74.5t125 29.5q78 0 127.5 -47.5t49.5 -149.5v-66l-77 -12q-48 -8 -79 -13.5 t-73.5 -15t-69.5 -18t-61 -22t-54.5 -28t-42.5 -35t-34.5 -44t-20 -53.5t-7.5 -65q0 -106 70 -163.5t171 -57.5q151 0 283 117z" />
<glyph unicode="&#xab;" horiz-adv-x="946" d="M894 251l-445 301v197l445 301v-141l-347 -259l347 -257v-142zM51 552v197l445 301v-141l-347 -259l347 -257v-142z" />
<glyph unicode="&#xac;" horiz-adv-x="1024" d="M803 335h86v421h-754v-86h668v-335z" />
<glyph unicode="&#xae;" horiz-adv-x="1702" d="M1579 774q0 -196 -98 -363.5t-266 -265.5t-365 -98q-196 0 -363.5 98t-265.5 265.5t-98 363.5q0 197 98 365t265.5 266t363.5 98q197 0 365 -98t266 -266t98 -365zM664 1184v-338h185q40 0 71 3t65 13t56 28t36.5 49.5t14.5 75.5t-15.5 76.5t-37.5 50t-57 27.5t-65 12.5 t-69 2.5h-184zM857 1248q322 0 322 -231q0 -168 -179 -224q10 -32 56.5 -135.5t87.5 -191.5l42 -87h-87l-183 400h-255v-398h-83v867h279zM849 100q182 0 337.5 90.5t246 245.5t90.5 337t-90.5 337.5t-246 246t-337.5 90.5t-337 -90.5t-245.5 -246t-90.5 -337.5t90.5 -337 t245.5 -245.5t337 -90.5z" />
<glyph unicode="&#xaf;" horiz-adv-x="724" d="M135 1219v110h454v-110h-454z" />
<glyph unicode="&#xb0;" horiz-adv-x="483" d="M483 1269q0 97 -66.5 166t-176.5 69q-107 0 -173.5 -69t-66.5 -168q0 -97 66.5 -166t173.5 -69q110 0 176.5 69.5t66.5 167.5zM379 1268q0 -60 -37 -105.5t-102 -45.5q-66 0 -104 45.5t-38 105.5q0 59 38 104.5t104 45.5q63 0 101 -45.5t38 -104.5z" />
<glyph unicode="&#xb1;" horiz-adv-x="860" d="M129 247v86h601v-86h-601zM130 673v100h249v250h102v-250h249v-100h-249v-250h-102v250h-249z" />
<glyph unicode="&#xb2;" horiz-adv-x="1230" d="M860 859h-330q24 41 68.5 81t87 71t82.5 67.5t65 86.5t25 111q0 101 -71.5 158t-167.5 57q-85 0 -154.5 -44.5t-100.5 -130.5q7 -3 29.5 -14t41.5 -21l19 -10q13 59 60 92t104 33q55 0 93.5 -33t38.5 -94v-3q0 -35 -26.5 -73t-66.5 -70.5t-87 -72.5t-87.5 -78t-68 -89 t-29.5 -104h475v80z" />
<glyph unicode="&#xb3;" horiz-adv-x="772" d="M363 1481q-67 0 -129.5 -32.5t-83.5 -90.5l73 -51q20 44 59 66.5t82 22.5q54 0 80.5 -26.5t26.5 -71.5q0 -54 -34 -84.5t-119 -31.5v-87q188 0 188 -142q0 -46 -36.5 -82.5t-93.5 -36.5q-132 0 -168 116l-78 -40q20 -82 89 -123t150 -42q118 0 184.5 64t61.5 151 q-8 141 -156 184q58 21 90 66.5t32 97.5q0 71 -58.5 122t-159.5 51z" />
<glyph unicode="&#xb4;" horiz-adv-x="494" d="M254 1492h195l-308 -320h-92z" />
<glyph unicode="&#xb5;" horiz-adv-x="1122" d="M261 -350v407q31 -35 87 -58t119 -23q245 0 362 183l4 -159h137v1023h-142v-587q0 -35 -9 -77t-33.5 -91t-61 -88.5t-97 -66t-135.5 -26.5q-122 0 -173 81t-51 238v617h-147v-542h-2v-831h142z" />
<glyph unicode="&#xb6;" horiz-adv-x="1038" d="M465 0v799q-162 0 -270 95t-108 241q0 57 13.5 103t50 89.5t95.5 72.5t155.5 46.5t224.5 17.5h368v-115h-170v-1349h-126v799h-103v-799h-130z" />
<glyph unicode="&#xb7;" horiz-adv-x="434" d="M135 758h164v-215h-164v215z" />
<glyph unicode="&#xb8;" horiz-adv-x="435" d="M150 -174v164h200v-179q0 -80 -34 -140.5t-102 -60.5q-21 0 -42 9v65q30 -8 37 -8q22 0 31 31t9 119h-99z" />
<glyph unicode="&#xb9;" horiz-adv-x="546" d="M262 769h113v695h-103l-148 -67l21 -90l117 58v-596z" />
<glyph unicode="&#xba;" horiz-adv-x="1000" d="M123 425q0 -213 103.5 -329t273.5 -116t273.5 117t103.5 331q0 216 -105.5 329.5t-270.5 113.5q-167 0 -272.5 -114.5t-105.5 -331.5zM501 79q-64 0 -112.5 29.5t-77 79.5t-43 111t-14.5 129q0 67 14 127t42.5 110t77.5 79t112 29q83 0 140.5 -51.5t82 -127.5t24.5 -168 q0 -68 -14.5 -128.5t-43 -110.5t-77.5 -79t-111 -29z" />
<glyph unicode="&#xbb;" horiz-adv-x="946" d="M53 1049l445 -301v-197l-445 -301v141l347 259l-347 257v142zM896 748v-197l-445 -301v141l347 259l-347 257v142z" />
<glyph unicode="&#xbf;" horiz-adv-x="1099" d="M127 0zM273 378q0 70 22 129t65 117t92.5 117t119.5 158t130 210h-149q-55 -94 -123.5 -185t-117.5 -150t-94 -122.5t-68 -131.5t-23 -147q0 -75 25.5 -143.5t76.5 -126.5t139 -92.5t203 -34.5q310 0 462 241l-99 73q-130 -203 -354 -203q-84 0 -146.5 25t-96 68.5 t-49 92.5t-15.5 105zM718 1467h-164v-215h164v215z" />
<glyph unicode="&#xc0;" horiz-adv-x="1218" d="M26 0zM313 1933h195l205 -319l-94 -1zM26 0l486 1464h192l488 -1464h-150l-134 399h-608l-128 -399h-146zM603 1362q-15 -46 -49.5 -158.5t-50.5 -163.5l-169 -532h540l-170 533q-58 180 -101 321z" />
<glyph unicode="&#xc1;" horiz-adv-x="1218" d="M26 0zM710 1933h195l-308 -320h-92zM26 0l486 1464h192l488 -1464h-150l-134 399h-608l-128 -399h-146zM603 1362q-15 -46 -49.5 -158.5t-50.5 -163.5l-169 -532h540l-170 533q-58 180 -101 321z" />
<glyph unicode="&#xc2;" horiz-adv-x="1218" d="M26 0zM517 1933h195l175 -320h-92l-181 218l-180 -218h-92zM26 0l486 1464h192l488 -1464h-150l-134 399h-608l-128 -399h-146zM603 1362q-15 -46 -49.5 -158.5t-50.5 -163.5l-169 -532h540l-170 533q-58 180 -101 321z" />
<glyph unicode="&#xc3;" horiz-adv-x="1218" d="M26 0zM478 1729q21 -1 119.5 -43.5t151.5 -42.5t94 38t41 120q0 11 -2 35h-97q0 -96 -39 -96q-21 0 -131 46t-153 46q-128 0 -128 -150q0 -26 2 -41h96q0 43 13.5 65.5t32.5 22.5zM26 0l486 1464h192l488 -1464h-150l-134 399h-608l-128 -399h-146zM603 1362 q-15 -46 -49.5 -158.5t-50.5 -163.5l-169 -532h540l-170 533q-58 180 -101 321z" />
<glyph unicode="&#xc4;" horiz-adv-x="1218" d="M26 0zM859 1806v-174h-166v174h166zM314 1806h166v-174h-166v174zM26 0l486 1464h192l488 -1464h-150l-134 399h-608l-128 -399h-146zM603 1362q-15 -46 -49.5 -158.5t-50.5 -163.5l-169 -532h540l-170 533q-58 180 -101 321z" />
<glyph unicode="&#xc5;" horiz-adv-x="1218" d="M26 0zM606 2033q-104 0 -162.5 -65t-58.5 -153t58 -151t163 -63q107 0 167 64t60 152t-59.5 152t-167.5 64zM483 1817q0 52 32.5 92t90.5 40t90.5 -40t32.5 -92t-32.5 -92.5t-90.5 -40.5t-90.5 40.5t-32.5 92.5zM26 0l486 1464h192l488 -1464h-150l-134 399h-608 l-128 -399h-146zM603 1362q-15 -46 -49.5 -158.5t-50.5 -163.5l-169 -532h540l-170 533q-58 180 -101 321z" />
<glyph unicode="&#xc6;" horiz-adv-x="2030" d="M432 508h542v898q1 -1 -24.5 -46t-61 -104t-56.5 -89q-353 -581 -400 -659zM-37 0l907 1464h1135v-112h-887v-514h725q0 -19 -0.5 -57.5t-0.5 -57.5h-724v-610h897v-113h-1044v399h-600l-247 -399h-161z" />
<glyph unicode="&#xc7;" horiz-adv-x="1338" d="M114 0zM623 -174v164h200v-179q0 -80 -34 -140.5t-102 -60.5q-21 0 -42 9v65q30 -8 37 -8q22 0 31 31t9 119h-99zM738 1491q199 0 338.5 -98.5t192.5 -290.5l-134 -31q-36 140 -136 221.5t-266 81.5q-249 0 -357.5 -162t-108.5 -474q0 -133 13.5 -232t46.5 -179 t86.5 -130.5t133.5 -77t189 -26.5q311 0 413 284l125 -39q-60 -181 -203.5 -272t-342.5 -91q-310 0 -462 181.5t-152 581.5q0 386 163 569.5t461 183.5z" />
<glyph unicode="&#xc8;" horiz-adv-x="1143" d="M148 0zM372 1933h195l205 -319l-94 -1zM1128 0h-980v1464h969v-112h-823v-514h716v-115h-716v-610h834v-113z" />
<glyph unicode="&#xc9;" horiz-adv-x="1143" d="M148 0zM686 1933h195l-308 -320h-92zM1128 0h-980v1464h969v-112h-823v-514h716v-115h-716v-610h834v-113z" />
<glyph unicode="&#xca;" horiz-adv-x="1143" d="M148 0zM561 1933h195l175 -320h-92l-181 218l-180 -218h-92zM1128 0h-980v1464h969v-112h-823v-514h716v-115h-716v-610h834v-113z" />
<glyph unicode="&#xcb;" horiz-adv-x="1143" d="M148 0zM922 1806v-174h-166v174h166zM377 1806h166v-174h-166v174zM1128 0h-980v1464h969v-112h-823v-514h716v-115h-716v-610h834v-113z" />
<glyph unicode="&#xcc;" horiz-adv-x="464" d="M0 0zM-97 1933h195l205 -319l-94 -1zM309 0h-146v1464h146v-1464z" />
<glyph unicode="&#xcd;" horiz-adv-x="464" d="M153 0zM358 1933h195l-308 -320h-92zM309 0h-146v1464h146v-1464z" />
<glyph unicode="&#xce;" horiz-adv-x="464" d="M0 0zM141 1933h195l175 -320h-92l-181 218l-180 -218h-92zM309 0h-146v1464h146v-1464z" />
<glyph unicode="&#xcf;" horiz-adv-x="464" d="M0 0zM503 1806v-174h-166v174h166zM-42 1806h166v-174h-166v174zM309 0h-146v1464h146v-1464z" />
<glyph unicode="&#xd0;" horiz-adv-x="1391" d="M0 702v86h140v676h504q159 0 272.5 -37.5t194.5 -122t120 -225t39 -341.5q0 -397 -150 -567.5t-483 -170.5h-497v702h-140zM645 1350h-359v-562h264v-86h-264v-588h303q155 0 257.5 33.5t165.5 110.5t89 191.5t26 287.5q0 123 -13 215t-46 169.5t-87.5 126.5t-138 75.5 t-197.5 26.5z" />
<glyph unicode="&#xd1;" horiz-adv-x="1491" d="M148 0zM642 1729q21 -1 119.5 -43.5t151.5 -42.5t94 38t41 120q0 11 -2 35h-97q0 -96 -39 -96q-21 0 -131 46t-153 46q-128 0 -128 -150q0 -26 2 -41h96q0 43 13.5 65.5t32.5 22.5zM148 0v1464h163l903 -1243v393v850h129v-1464h-132l-930 1290v-415v-875h-133z" />
<glyph unicode="&#xd2;" horiz-adv-x="1449" d="M114 0zM448 1933h195l205 -319l-94 -1zM723 1491q146 0 256.5 -42t191.5 -130t122.5 -233.5t41.5 -344.5q0 -400 -155 -583t-458 -183q-147 0 -257 42t-190 132t-120.5 238t-40.5 353q0 200 41.5 345.5t121.5 234t190.5 130t255.5 41.5zM722 1374q-104 0 -182.5 -29 t-130 -81.5t-83.5 -132.5t-45.5 -174.5t-13.5 -215.5q0 -337 104 -492.5t352 -155.5q249 0 353 154t104 493q0 121 -13.5 216t-46 175t-84.5 132.5t-130.5 81.5t-183.5 29z" />
<glyph unicode="&#xd3;" horiz-adv-x="1449" d="M114 0zM820 1933h195l-308 -320h-92zM723 1491q146 0 256.5 -42t191.5 -130t122.5 -233.5t41.5 -344.5q0 -400 -155 -583t-458 -183q-147 0 -257 42t-190 132t-120.5 238t-40.5 353q0 200 41.5 345.5t121.5 234t190.5 130t255.5 41.5zM722 1374q-104 0 -182.5 -29 t-130 -81.5t-83.5 -132.5t-45.5 -174.5t-13.5 -215.5q0 -337 104 -492.5t352 -155.5q249 0 353 154t104 493q0 121 -13.5 216t-46 175t-84.5 132.5t-130.5 81.5t-183.5 29z" />
<glyph unicode="&#xd4;" horiz-adv-x="1449" d="M114 0zM633 1933h195l175 -320h-92l-181 218l-180 -218h-92zM723 1491q146 0 256.5 -42t191.5 -130t122.5 -233.5t41.5 -344.5q0 -400 -155 -583t-458 -183q-147 0 -257 42t-190 132t-120.5 238t-40.5 353q0 200 41.5 345.5t121.5 234t190.5 130t255.5 41.5zM722 1374 q-104 0 -182.5 -29t-130 -81.5t-83.5 -132.5t-45.5 -174.5t-13.5 -215.5q0 -337 104 -492.5t352 -155.5q249 0 353 154t104 493q0 121 -13.5 216t-46 175t-84.5 132.5t-130.5 81.5t-183.5 29z" />
<glyph unicode="&#xd5;" horiz-adv-x="1449" d="M114 0zM582 1729q21 -1 119.5 -43.5t151.5 -42.5t94 38t41 120q0 11 -2 35h-97q0 -96 -39 -96q-21 0 -131 46t-153 46q-128 0 -128 -150q0 -26 2 -41h96q0 43 13.5 65.5t32.5 22.5zM723 1491q146 0 256.5 -42t191.5 -130t122.5 -233.5t41.5 -344.5q0 -400 -155 -583 t-458 -183q-147 0 -257 42t-190 132t-120.5 238t-40.5 353q0 200 41.5 345.5t121.5 234t190.5 130t255.5 41.5zM722 1374q-104 0 -182.5 -29t-130 -81.5t-83.5 -132.5t-45.5 -174.5t-13.5 -215.5q0 -337 104 -492.5t352 -155.5q249 0 353 154t104 493q0 121 -13.5 216 t-46 175t-84.5 132.5t-130.5 81.5t-183.5 29z" />
<glyph unicode="&#xd6;" horiz-adv-x="1449" d="M114 0zM975 1806v-174h-166v174h166zM430 1806h166v-174h-166v174zM723 1491q146 0 256.5 -42t191.5 -130t122.5 -233.5t41.5 -344.5q0 -400 -155 -583t-458 -183q-147 0 -257 42t-190 132t-120.5 238t-40.5 353q0 200 41.5 345.5t121.5 234t190.5 130t255.5 41.5z M722 1374q-104 0 -182.5 -29t-130 -81.5t-83.5 -132.5t-45.5 -174.5t-13.5 -215.5q0 -337 104 -492.5t352 -155.5q249 0 353 154t104 493q0 121 -13.5 216t-46 175t-84.5 132.5t-130.5 81.5t-183.5 29z" />
<glyph unicode="&#xd7;" horiz-adv-x="734" d="M190 203l-70 70l176 176l-177 177l72 72l177 -177l176 176l70 -70l-176 -176l177 -177l-72 -72l-177 177z" />
<glyph unicode="&#xd8;" horiz-adv-x="1463" d="M722 1374q141 0 239 -53l-550 -1121q-144 144 -144 541q0 121 13.5 215.5t45.5 174.5t83.5 132.5t130 81.5t182.5 29zM723 93q-140 0 -234 49l549 1120q142 -146 142 -522q0 -339 -104 -493t-353 -154zM1335 741q0 470 -237 645l112 228l-84 44l-110 -224 q-121 57 -293 57q-145 0 -255.5 -41.5t-190.5 -130t-121.5 -234t-41.5 -345.5q0 -489 238 -662l-117 -238l85 -44l114 234q119 -55 288 -55q303 0 458 183t155 583z" />
<glyph unicode="&#xd9;" horiz-adv-x="1346" d="M123 0zM433 1933h195l205 -319l-94 -1zM123 574v890h160v-866q0 -94 9 -165t35 -136.5t69 -107.5t113.5 -66.5t166.5 -24.5t166 24.5t112.5 66.5t68 107.5t34.5 136.5t9 165v866h157v-883q0 -313 -135 -459.5t-418 -146.5q-276 0 -411.5 143.5t-135.5 455.5z" />
<glyph unicode="&#xda;" horiz-adv-x="1346" d="M123 0zM732 1933h195l-308 -320h-92zM123 574v890h160v-866q0 -94 9 -165t35 -136.5t69 -107.5t113.5 -66.5t166.5 -24.5t166 24.5t112.5 66.5t68 107.5t34.5 136.5t9 165v866h157v-883q0 -313 -135 -459.5t-418 -146.5q-276 0 -411.5 143.5t-135.5 455.5z" />
<glyph unicode="&#xdb;" horiz-adv-x="1346" d="M123 0zM581 1933h195l175 -320h-92l-181 218l-180 -218h-92zM123 574v890h160v-866q0 -94 9 -165t35 -136.5t69 -107.5t113.5 -66.5t166.5 -24.5t166 24.5t112.5 66.5t68 107.5t34.5 136.5t9 165v866h157v-883q0 -313 -135 -459.5t-418 -146.5q-276 0 -411.5 143.5 t-135.5 455.5z" />
<glyph unicode="&#xdc;" horiz-adv-x="1346" d="M123 0zM962 1806v-174h-166v174h166zM417 1806h166v-174h-166v174zM123 574v890h160v-866q0 -94 9 -165t35 -136.5t69 -107.5t113.5 -66.5t166.5 -24.5t166 24.5t112.5 66.5t68 107.5t34.5 136.5t9 165v866h157v-883q0 -313 -135 -459.5t-418 -146.5q-276 0 -411.5 143.5 t-135.5 455.5z" />
<glyph unicode="&#xdd;" horiz-adv-x="1162" d="M0 0zM677 1933h195l-308 -320h-92zM508 549l-512 915h158l428 -782l427 782h157l-512 -916v-548h-146v549z" />
<glyph unicode="&#xde;" horiz-adv-x="1261" d="M140 0v1464h156v-270h265q234 0 375.5 -46t204 -137t62.5 -238q0 -245 -158.5 -341.5t-542.5 -96.5h-212v-335h-150zM296 1080v-631h262q271 1 384 70t113 246q0 178 -115.5 246.5t-401.5 68.5h-242z" />
<glyph unicode="&#xdf;" horiz-adv-x="1199" d="M130 0v1151q0 80 37.5 146.5t100 108t140 64t160.5 22.5q186 0 279 -81t93 -208q0 -60 -26.5 -111.5t-65.5 -85t-85.5 -63t-85.5 -47.5t-65.5 -36t-26.5 -32v-5q0 -28 29.5 -53.5t77 -48t104.5 -47.5t114 -56.5t104.5 -69.5t77 -92.5t29.5 -119.5q0 -74 -12.5 -122.5 t-51 -92.5t-108.5 -68.5t-185.5 -38.5t-282.5 -14h-40v117q167 0 274.5 14t163.5 43.5t76 66t20 91.5q0 49 -29.5 90.5t-76.5 71.5t-104 57.5t-114 54.5t-104 56t-76.5 68.5t-29.5 85.5q0 51 37.5 90.5t90.5 67.5t106.5 57t91 74t37.5 104q0 85 -61.5 132t-177.5 47 q-117 0 -203 -66t-86 -182v-1140h-146z" />
<glyph unicode="&#xe0;" horiz-adv-x="1025" d="M90 0zM253 1492h195l205 -319l-94 -1zM746 219q-173 -146 -332 -146q-190 0 -190 192q0 37 11 65t37.5 49.5t57.5 37t85 29t104 23t129 21.5l98 15v-286zM771 0h117v673q0 371 -376 371q-257 0 -380 -156q85 -80 85 -81q50 62 125.5 95t161.5 33q132 0 187 -62.5 t55 -229.5v-42l-99 -15q-87 -13 -130 -20.5t-114 -23t-106.5 -30t-82.5 -40t-69 -56t-38.5 -74t-16.5 -97.5q0 -128 85.5 -198.5t213.5 -70.5q194 0 365 140z" />
<glyph unicode="&#xe1;" horiz-adv-x="1025" d="M90 0zM582 1492h195l-308 -320h-92zM746 219q-173 -146 -332 -146q-190 0 -190 192q0 37 11 65t37.5 49.5t57.5 37t85 29t104 23t129 21.5l98 15v-286zM771 0h117v673q0 371 -376 371q-257 0 -380 -156q85 -80 85 -81q50 62 125.5 95t161.5 33q132 0 187 -62.5t55 -229.5 v-42l-99 -15q-87 -13 -130 -20.5t-114 -23t-106.5 -30t-82.5 -40t-69 -56t-38.5 -74t-16.5 -97.5q0 -128 85.5 -198.5t213.5 -70.5q194 0 365 140z" />
<glyph unicode="&#xe2;" horiz-adv-x="1025" d="M90 0zM416 1492h195l175 -320h-92l-181 218l-180 -218h-92zM746 219q-173 -146 -332 -146q-190 0 -190 192q0 37 11 65t37.5 49.5t57.5 37t85 29t104 23t129 21.5l98 15v-286zM771 0h117v673q0 371 -376 371q-257 0 -380 -156q85 -80 85 -81q50 62 125.5 95t161.5 33 q132 0 187 -62.5t55 -229.5v-42l-99 -15q-87 -13 -130 -20.5t-114 -23t-106.5 -30t-82.5 -40t-69 -56t-38.5 -74t-16.5 -97.5q0 -128 85.5 -198.5t213.5 -70.5q194 0 365 140z" />
<glyph unicode="&#xe3;" horiz-adv-x="1025" d="M90 0zM382 1288q21 -1 119.5 -43.5t151.5 -42.5t94 38t41 120q0 11 -2 35h-97q0 -96 -39 -96q-21 0 -131 46t-153 46q-128 0 -128 -150q0 -26 2 -41h96q0 43 13.5 65.5t32.5 22.5zM746 219q-173 -146 -332 -146q-190 0 -190 192q0 37 11 65t37.5 49.5t57.5 37t85 29 t104 23t129 21.5l98 15v-286zM771 0h117v673q0 371 -376 371q-257 0 -380 -156q85 -80 85 -81q50 62 125.5 95t161.5 33q132 0 187 -62.5t55 -229.5v-42l-99 -15q-87 -13 -130 -20.5t-114 -23t-106.5 -30t-82.5 -40t-69 -56t-38.5 -74t-16.5 -97.5q0 -128 85.5 -198.5 t213.5 -70.5q194 0 365 140z" />
<glyph unicode="&#xe4;" horiz-adv-x="1025" d="M90 0zM781 1365v-174h-166v174h166zM236 1365h166v-174h-166v174zM746 219q-173 -146 -332 -146q-190 0 -190 192q0 37 11 65t37.5 49.5t57.5 37t85 29t104 23t129 21.5l98 15v-286zM771 0h117v673q0 371 -376 371q-257 0 -380 -156q85 -80 85 -81q50 62 125.5 95 t161.5 33q132 0 187 -62.5t55 -229.5v-42l-99 -15q-87 -13 -130 -20.5t-114 -23t-106.5 -30t-82.5 -40t-69 -56t-38.5 -74t-16.5 -97.5q0 -128 85.5 -198.5t213.5 -70.5q194 0 365 140z" />
<glyph unicode="&#xe5;" horiz-adv-x="1025" d="M90 0zM510 1592q-104 0 -162.5 -65t-58.5 -153t58 -151t163 -63q107 0 167 64t60 152t-59.5 152t-167.5 64zM387 1376q0 52 32.5 92t90.5 40t90.5 -40t32.5 -92t-32.5 -92.5t-90.5 -40.5t-90.5 40.5t-32.5 92.5zM746 219q-173 -146 -332 -146q-190 0 -190 192q0 37 11 65 t37.5 49.5t57.5 37t85 29t104 23t129 21.5l98 15v-286zM771 0h117v673q0 371 -376 371q-257 0 -380 -156q85 -80 85 -81q50 62 125.5 95t161.5 33q132 0 187 -62.5t55 -229.5v-42l-99 -15q-87 -13 -130 -20.5t-114 -23t-106.5 -30t-82.5 -40t-69 -56t-38.5 -74t-16.5 -97.5 q0 -128 85.5 -198.5t213.5 -70.5q194 0 365 140z" />
<glyph unicode="&#xe6;" horiz-adv-x="1667" d="M133 927q169 117 385 117q129 0 216.5 -53t107.5 -159q45 99 140 155.5t209 56.5q104 0 181.5 -35t124 -99.5t68.5 -148.5t22 -189q0 -38 -3 -64l-684 -14q0 -413 291 -413q62 0 112.5 21.5t80.5 55t47 62t24 53.5l115 -39q-42 -114 -144 -185.5t-231 -72.5 q-123 0 -218.5 56.5t-131.5 162.5q-68 -123 -173 -171.5t-243 -48.5q-92 0 -167.5 27.5t-126.5 92t-51 156.5q0 93 38.5 158t113 101t165 52.5t212.5 18.5q5 0 72.5 2t66.5 3q0 77 -4.5 127.5t-18 97.5t-38.5 73t-66.5 41t-101.5 15q-58 0 -103.5 -7t-86 -24t-64.5 -30.5 t-66 -40.5zM771 318q0 23 -5 91t-5 78l-141 -5q-74 -4 -126 -10t-106 -21.5t-87 -39t-54 -62.5t-21 -93q0 -86 63 -131t151 -45q64 0 122.5 15t105.5 43.5t75 75t28 104.5zM1450 606q-1 164 -63 249.5t-200 85.5q-130 0 -204 -100.5t-82 -248.5z" />
<glyph unicode="&#xe7;" horiz-adv-x="979" d="M92 0zM427 -174v164h200v-179q0 -80 -34 -140.5t-102 -60.5q-21 0 -42 9v65q30 -8 37 -8q22 0 31 31t9 119h-99zM92 509q0 157 49 276t151 189t246 70q62 0 116.5 -15t106 -49t91 -97t59.5 -150l-119 -32q-32 122 -91.5 180.5t-156.5 58.5q-154 0 -230.5 -114.5 t-76.5 -313.5q0 -97 17 -174t51.5 -135.5t92 -90t133.5 -31.5q199 0 268 235l109 -34q-18 -81 -57.5 -142t-92 -96t-110.5 -51.5t-120 -16.5q-212 0 -324 145.5t-112 387.5z" />
<glyph unicode="&#xe8;" d="M92 0zM267 1492h195l205 -319l-94 -1zM532 1044q104 0 183.5 -36.5t127.5 -102t72 -151.5t24 -190q0 -34 -3 -60h-699q0 -87 17 -161.5t51.5 -134t94 -93.5t137.5 -34q101 0 166 46.5t92 130.5l110 -24q-23 -85 -81 -144.5t-130 -86t-153 -27.5h-4q-113 0 -200.5 44 t-140 119.5t-78.5 170t-26 202.5q0 239 116.5 385.5t323.5 146.5zM802 597q-1 164 -68 254t-206 90q-67 0 -120 -27t-87.5 -75t-54.5 -109t-26 -133h562z" />
<glyph unicode="&#xe9;" d="M92 0zM631 1492h195l-308 -320h-92zM532 1044q104 0 183.5 -36.5t127.5 -102t72 -151.5t24 -190q0 -34 -3 -60h-699q0 -87 17 -161.5t51.5 -134t94 -93.5t137.5 -34q101 0 166 46.5t92 130.5l110 -24q-23 -85 -81 -144.5t-130 -86t-153 -27.5h-4q-113 0 -200.5 44 t-140 119.5t-78.5 170t-26 202.5q0 239 116.5 385.5t323.5 146.5zM802 597q-1 164 -68 254t-206 90q-67 0 -120 -27t-87.5 -75t-54.5 -109t-26 -133h562z" />
<glyph unicode="&#xea;" d="M92 0zM445 1492h195l175 -320h-92l-181 218l-180 -218h-92zM532 1044q104 0 183.5 -36.5t127.5 -102t72 -151.5t24 -190q0 -34 -3 -60h-699q0 -87 17 -161.5t51.5 -134t94 -93.5t137.5 -34q101 0 166 46.5t92 130.5l110 -24q-23 -85 -81 -144.5t-130 -86t-153 -27.5h-4 q-113 0 -200.5 44t-140 119.5t-78.5 170t-26 202.5q0 239 116.5 385.5t323.5 146.5zM802 597q-1 164 -68 254t-206 90q-67 0 -120 -27t-87.5 -75t-54.5 -109t-26 -133h562z" />
<glyph unicode="&#xeb;" d="M92 0zM532 1044q104 0 183.5 -36.5t127.5 -102t72 -151.5t24 -190q0 -34 -3 -60h-699q0 -87 17 -161.5t51.5 -134t94 -93.5t137.5 -34q101 0 166 46.5t92 130.5l110 -24q-23 -85 -81 -144.5t-130 -86t-153 -27.5h-4q-113 0 -200.5 44t-140 119.5t-78.5 170t-26 202.5 q0 239 116.5 385.5t323.5 146.5zM802 597q-1 164 -68 254t-206 90q-67 0 -120 -27t-87.5 -75t-54.5 -109t-26 -133h562zM795 1365v-174h-166v174h166zM250 1365h166v-174h-166v174z" />
<glyph unicode="&#xec;" horiz-adv-x="411" d="M0 0zM-78 1492h195l205 -319l-94 -1zM140 0v1023h142v-1023h-142z" />
<glyph unicode="&#xed;" horiz-adv-x="411" d="M134 0zM140 0v1023h142v-1023h-142zM339 1492h195l-308 -320h-92z" />
<glyph unicode="&#xee;" horiz-adv-x="411" d="M0 0zM140 0v1023h142v-1023h-142zM115 1492h195l175 -320h-92l-181 218l-180 -218h-92z" />
<glyph unicode="&#xef;" horiz-adv-x="411" d="M0 0zM482 1365v-174h-166v174h166zM-63 1365h166v-174h-166v174zM140 0v1023h142v-1023h-142z" />
<glyph unicode="&#xf0;" horiz-adv-x="1053" d="M368 1101l191 124q-151 114 -390 114v93q291 0 479 -149l206 135l53 -75l-192 -125q102 -106 173 -297.5t71 -391.5q0 -122 -25 -220.5t-76.5 -174.5t-137.5 -117.5t-202 -41.5q-104 0 -186.5 40t-133.5 107.5t-77.5 152.5t-26.5 179q0 106 34.5 193.5t92 143.5 t130.5 86.5t152 30.5q177 0 307 -134q-14 104 -72 214.5t-120 166.5l-197 -129zM523 798q-123 0 -205.5 -96.5t-82.5 -262.5q0 -164 79 -259.5t204 -95.5q152 0 228.5 115.5t76.5 311.5q0 109 -7 139q-135 148 -293 148z" />
<glyph unicode="&#xf1;" horiz-adv-x="1085" d="M127 0zM442 1288q21 -1 119.5 -43.5t151.5 -42.5t94 38t41 120q0 11 -2 35h-97q0 -96 -39 -96q-21 0 -131 46t-153 46q-128 0 -128 -150q0 -26 2 -41h96q0 43 13.5 65.5t32.5 22.5zM127 0v1023h138v-32v-62.5v-70.5v-28q19 55 59 97.5t90.5 67t103.5 37t105 12.5 q59 0 107.5 -11t82.5 -32.5t60 -47t42 -62.5t26.5 -70.5t15.5 -78.5t6.5 -79t1.5 -79v-584h-142v603q0 64 -5.5 112t-20.5 90t-39.5 68.5t-63 41.5t-91.5 15q-77 0 -135.5 -22t-96 -60t-60.5 -94t-32.5 -117.5t-9.5 -137.5v-499h-142z" />
<glyph unicode="&#xf2;" horiz-adv-x="1064" d="M92 0zM263 1492h195l205 -319l-94 -1zM533 1044q197 0 318 -135.5t121 -395.5q0 -258 -118.5 -397.5t-321.5 -139.5t-321.5 138.5t-118.5 395.5q0 262 121 398t320 136zM532 940q-84 0 -144 -36.5t-91.5 -100.5t-45.5 -135t-14 -155q0 -67 8 -126t29 -116.5t53.5 -98.5 t85 -66t120.5 -25q67 0 119.5 25t85 65.5t53.5 97.5t29 116t8 126q0 66 -8.5 125t-29.5 116t-53.5 97.5t-85 65.5t-119.5 25z" />
<glyph unicode="&#xf3;" horiz-adv-x="1064" d="M92 0zM600 1492h195l-308 -320h-92zM533 1044q197 0 318 -135.5t121 -395.5q0 -258 -118.5 -397.5t-321.5 -139.5t-321.5 138.5t-118.5 395.5q0 262 121 398t320 136zM532 940q-84 0 -144 -36.5t-91.5 -100.5t-45.5 -135t-14 -155q0 -67 8 -126t29 -116.5t53.5 -98.5 t85 -66t120.5 -25q67 0 119.5 25t85 65.5t53.5 97.5t29 116t8 126q0 66 -8.5 125t-29.5 116t-53.5 97.5t-85 65.5t-119.5 25z" />
<glyph unicode="&#xf4;" horiz-adv-x="1064" d="M92 0zM441 1492h195l175 -320h-92l-181 218l-180 -218h-92zM533 1044q197 0 318 -135.5t121 -395.5q0 -258 -118.5 -397.5t-321.5 -139.5t-321.5 138.5t-118.5 395.5q0 262 121 398t320 136zM532 940q-84 0 -144 -36.5t-91.5 -100.5t-45.5 -135t-14 -155q0 -67 8 -126 t29 -116.5t53.5 -98.5t85 -66t120.5 -25q67 0 119.5 25t85 65.5t53.5 97.5t29 116t8 126q0 66 -8.5 125t-29.5 116t-53.5 97.5t-85 65.5t-119.5 25z" />
<glyph unicode="&#xf5;" horiz-adv-x="1064" d="M92 0zM382 1288q21 -1 119.5 -43.5t151.5 -42.5t94 38t41 120q0 11 -2 35h-97q0 -96 -39 -96q-21 0 -131 46t-153 46q-128 0 -128 -150q0 -26 2 -41h96q0 43 13.5 65.5t32.5 22.5zM533 1044q197 0 318 -135.5t121 -395.5q0 -258 -118.5 -397.5t-321.5 -139.5 t-321.5 138.5t-118.5 395.5q0 262 121 398t320 136zM532 940q-84 0 -144 -36.5t-91.5 -100.5t-45.5 -135t-14 -155q0 -67 8 -126t29 -116.5t53.5 -98.5t85 -66t120.5 -25q67 0 119.5 25t85 65.5t53.5 97.5t29 116t8 126q0 66 -8.5 125t-29.5 116t-53.5 97.5t-85 65.5 t-119.5 25z" />
<glyph unicode="&#xf6;" horiz-adv-x="1064" d="M92 0zM805 1365v-174h-166v174h166zM260 1365h166v-174h-166v174zM533 1044q197 0 318 -135.5t121 -395.5q0 -258 -118.5 -397.5t-321.5 -139.5t-321.5 138.5t-118.5 395.5q0 262 121 398t320 136zM532 940q-84 0 -144 -36.5t-91.5 -100.5t-45.5 -135t-14 -155 q0 -67 8 -126t29 -116.5t53.5 -98.5t85 -66t120.5 -25q67 0 119.5 25t85 65.5t53.5 97.5t29 116t8 126q0 66 -8.5 125t-29.5 116t-53.5 97.5t-85 65.5t-119.5 25z" />
<glyph unicode="&#xf7;" horiz-adv-x="1024" d="M565 385v-214h-173v214h173zM392 1024h173v-216h-173v216zM850 551v98h-750v-98h750z" />
<glyph unicode="&#xf8;" horiz-adv-x="1064" d="M532 940q89 0 151 -42l-349 -734q-97 109 -97 349q0 84 14 155t45.5 135t91.5 100.5t144 36.5zM533 81q-76 0 -133 31l345 726q83 -111 83 -327q0 -67 -8 -126t-29 -116t-53.5 -97.5t-85 -65.5t-119.5 -25zM972 513q0 305 -171 443l105 222l-72 38l-102 -215 q-87 43 -199 43q-199 0 -320 -136t-121 -398q0 -323 188 -460l-99 -209l73 -38l98 207q80 -34 180 -34q203 0 321.5 139.5t118.5 397.5z" />
<glyph unicode="&#xf9;" horiz-adv-x="1127" d="M121 0zM233 1492h195l205 -319l-94 -1zM813 436v587h142v-1023h-138v192q-40 -106 -142.5 -161t-216.5 -55q-65 0 -117.5 15.5t-87 40t-60 63t-39 75.5t-21.5 87.5t-10 89t-2 89.5v587h142v-617q0 -158 49 -238.5t171 -80.5q75 0 135 25t95.5 62.5t59 86t32 92t8.5 83.5z " />
<glyph unicode="&#xfa;" horiz-adv-x="1127" d="M121 0zM611 1492h195l-308 -320h-92zM813 436v587h142v-1023h-138v192q-40 -106 -142.5 -161t-216.5 -55q-65 0 -117.5 15.5t-87 40t-60 63t-39 75.5t-21.5 87.5t-10 89t-2 89.5v587h142v-617q0 -158 49 -238.5t171 -80.5q75 0 135 25t95.5 62.5t59 86t32 92t8.5 83.5z " />
<glyph unicode="&#xfb;" horiz-adv-x="1127" d="M121 0zM458 1492h195l175 -320h-92l-181 218l-180 -218h-92zM813 436v587h142v-1023h-138v192q-40 -106 -142.5 -161t-216.5 -55q-65 0 -117.5 15.5t-87 40t-60 63t-39 75.5t-21.5 87.5t-10 89t-2 89.5v587h142v-617q0 -158 49 -238.5t171 -80.5q75 0 135 25t95.5 62.5 t59 86t32 92t8.5 83.5z" />
<glyph unicode="&#xfc;" horiz-adv-x="1127" d="M121 0zM813 436v587h142v-1023h-138v192q-40 -106 -142.5 -161t-216.5 -55q-65 0 -117.5 15.5t-87 40t-60 63t-39 75.5t-21.5 87.5t-10 89t-2 89.5v587h142v-617q0 -158 49 -238.5t171 -80.5q75 0 135 25t95.5 62.5t59 86t32 92t8.5 83.5zM811 1365v-174h-166v174h166z M266 1365h166v-174h-166v174z" />
<glyph unicode="&#xfd;" horiz-adv-x="985" d="M34 0zM541 1492h195l-308 -320h-92zM426 64l-392 959h146l57 -147q57 -146 137 -351t124 -314q86 224 317 812h140q-69 -175 -198.5 -496t-172.5 -430q-36 -91 -62.5 -147.5t-63.5 -113.5t-75.5 -87.5t-92.5 -49.5t-121 -19q-53 0 -105 14l15 113q46 -7 88 -7 q169 0 236 197z" />
<glyph unicode="&#xfe;" horiz-adv-x="1058" d="M272 1464v-590q99 170 301 170q100 0 177 -40.5t123.5 -112.5t70 -165.5t23.5 -205.5q0 -116 -23.5 -213t-70 -171t-121.5 -116.5t-172 -43.5q-104 0 -183.5 46t-123.5 132v-133v-399l-142 -16v1858h141zM822 521q0 204 -77 313t-186 109q-114 0 -200 -114.5t-86 -309.5 q0 -438 286 -438q124 0 193.5 116t69.5 324z" />
<glyph unicode="&#xff;" horiz-adv-x="985" d="M34 0zM763 1365v-174h-166v174h166zM218 1365h166v-174h-166v174zM426 64l-392 959h146l57 -147q57 -146 137 -351t124 -314q86 224 317 812h140q-69 -175 -198.5 -496t-172.5 -430q-36 -91 -62.5 -147.5t-63.5 -113.5t-75.5 -87.5t-92.5 -49.5t-121 -19q-53 0 -105 14 l15 113q46 -7 88 -7q169 0 236 197z" />
<glyph unicode="&#x100;" horiz-adv-x="1218" d="M26 0zM382 1660v110h454v-110h-454zM26 0l486 1464h192l488 -1464h-150l-134 399h-608l-128 -399h-146zM603 1362q-15 -46 -49.5 -158.5t-50.5 -163.5l-169 -532h540l-170 533q-58 180 -101 321z" />
<glyph unicode="&#x101;" horiz-adv-x="1025" d="M90 0zM286 1219v110h454v-110h-454zM746 219q-173 -146 -332 -146q-190 0 -190 192q0 37 11 65t37.5 49.5t57.5 37t85 29t104 23t129 21.5l98 15v-286zM771 0h117v673q0 371 -376 371q-257 0 -380 -156q85 -80 85 -81q50 62 125.5 95t161.5 33q132 0 187 -62.5t55 -229.5 v-42l-99 -15q-87 -13 -130 -20.5t-114 -23t-106.5 -30t-82.5 -40t-69 -56t-38.5 -74t-16.5 -97.5q0 -128 85.5 -198.5t213.5 -70.5q194 0 365 140z" />
<glyph unicode="&#x102;" horiz-adv-x="1218" d="M26 0zM609 1624q-111 0 -192 67t-84 188h116q0 -77 43 -114t117 -37t117 37t43 114h116q-3 -121 -84 -188t-192 -67zM26 0l486 1464h192l488 -1464h-150l-134 399h-608l-128 -399h-146zM603 1362q-15 -46 -49.5 -158.5t-50.5 -163.5l-169 -532h540l-170 533 q-58 180 -101 321z" />
<glyph unicode="&#x103;" horiz-adv-x="1025" d="M90 0zM513 1183q-111 0 -192 67t-84 188h116q0 -77 43 -114t117 -37t117 37t43 114h116q-3 -121 -84 -188t-192 -67zM746 219q-173 -146 -332 -146q-190 0 -190 192q0 37 11 65t37.5 49.5t57.5 37t85 29t104 23t129 21.5l98 15v-286zM771 0h117v673q0 371 -376 371 q-257 0 -380 -156q85 -80 85 -81q50 62 125.5 95t161.5 33q132 0 187 -62.5t55 -229.5v-42l-99 -15q-87 -13 -130 -20.5t-114 -23t-106.5 -30t-82.5 -40t-69 -56t-38.5 -74t-16.5 -97.5q0 -128 85.5 -198.5t213.5 -70.5q194 0 365 140z" />
<glyph unicode="&#x104;" horiz-adv-x="1218" d="M26 0zM1118 0q-3 -6 -11.5 -24.5t-12 -26.5t-11.5 -25.5t-11.5 -27t-9.5 -24.5t-9 -25.5t-6 -23t-4.5 -23t-1.5 -19.5q0 -64 73 -64q13 0 35 5v-83q-32 -8 -65 -8q-76 0 -120 37t-44 91q0 62 43.5 137t83.5 104h71zM26 0l486 1464h192l488 -1464h-150l-134 399h-608 l-128 -399h-146zM603 1362q-15 -46 -49.5 -158.5t-50.5 -163.5l-169 -532h540l-170 533q-58 180 -101 321z" />
<glyph unicode="&#x105;" horiz-adv-x="1025" d="M90 0zM848 0q-3 -6 -11.5 -24.5t-12 -26.5t-11.5 -25.5t-11.5 -27t-9.5 -24.5t-9 -25.5t-6 -23t-4.5 -23t-1.5 -19.5q0 -64 73 -64q13 0 35 5v-83q-32 -8 -65 -8q-76 0 -120 37t-44 91q0 62 43.5 137t83.5 104h71zM746 219q-173 -146 -332 -146q-190 0 -190 192 q0 37 11 65t37.5 49.5t57.5 37t85 29t104 23t129 21.5l98 15v-286zM771 0h117v673q0 371 -376 371q-257 0 -380 -156q85 -80 85 -81q50 62 125.5 95t161.5 33q132 0 187 -62.5t55 -229.5v-42l-99 -15q-87 -13 -130 -20.5t-114 -23t-106.5 -30t-82.5 -40t-69 -56t-38.5 -74 t-16.5 -97.5q0 -128 85.5 -198.5t213.5 -70.5q194 0 365 140z" />
<glyph unicode="&#x106;" horiz-adv-x="1338" d="M114 0zM805 1933h195l-308 -320h-92zM738 1491q199 0 338.5 -98.5t192.5 -290.5l-134 -31q-36 140 -136 221.5t-266 81.5q-249 0 -357.5 -162t-108.5 -474q0 -133 13.5 -232t46.5 -179t86.5 -130.5t133.5 -77t189 -26.5q311 0 413 284l125 -39q-60 -181 -203.5 -272 t-342.5 -91q-310 0 -462 181.5t-152 581.5q0 386 163 569.5t461 183.5z" />
<glyph unicode="&#x107;" horiz-adv-x="979" d="M92 0zM92 509q0 157 49 276t151 189t246 70q62 0 116.5 -15t106 -49t91 -97t59.5 -150l-119 -32q-32 122 -91.5 180.5t-156.5 58.5q-154 0 -230.5 -114.5t-76.5 -313.5q0 -97 17 -174t51.5 -135.5t92 -90t133.5 -31.5q199 0 268 235l109 -34q-18 -81 -57.5 -142t-92 -96 t-110.5 -51.5t-120 -16.5q-212 0 -324 145.5t-112 387.5zM635 1492h195l-308 -320h-92z" />
<glyph unicode="&#x108;" horiz-adv-x="1338" d="M114 0zM616 1933h195l175 -320h-92l-181 218l-180 -218h-92zM738 1491q199 0 338.5 -98.5t192.5 -290.5l-134 -31q-36 140 -136 221.5t-266 81.5q-249 0 -357.5 -162t-108.5 -474q0 -133 13.5 -232t46.5 -179t86.5 -130.5t133.5 -77t189 -26.5q311 0 413 284l125 -39 q-60 -181 -203.5 -272t-342.5 -91q-310 0 -462 181.5t-152 581.5q0 386 163 569.5t461 183.5z" />
<glyph unicode="&#x109;" horiz-adv-x="979" d="M92 0zM439 1492h195l175 -320h-92l-181 218l-180 -218h-92zM92 509q0 157 49 276t151 189t246 70q62 0 116.5 -15t106 -49t91 -97t59.5 -150l-119 -32q-32 122 -91.5 180.5t-156.5 58.5q-154 0 -230.5 -114.5t-76.5 -313.5q0 -97 17 -174t51.5 -135.5t92 -90t133.5 -31.5 q199 0 268 235l109 -34q-18 -81 -57.5 -142t-92 -96t-110.5 -51.5t-120 -16.5q-212 0 -324 145.5t-112 387.5z" />
<glyph unicode="&#x10a;" horiz-adv-x="1338" d="M114 0zM722 1593q-39 0 -67.5 18.5t-41.5 46t-13 60.5q0 50 32 87t90 37t90 -37t32 -87.5t-32 -87.5t-90 -37zM738 1491q199 0 338.5 -98.5t192.5 -290.5l-134 -31q-36 140 -136 221.5t-266 81.5q-249 0 -357.5 -162t-108.5 -474q0 -133 13.5 -232t46.5 -179t86.5 -130.5 t133.5 -77t189 -26.5q311 0 413 284l125 -39q-60 -181 -203.5 -272t-342.5 -91q-310 0 -462 181.5t-152 581.5q0 386 163 569.5t461 183.5z" />
<glyph unicode="&#x10b;" horiz-adv-x="979" d="M92 0zM528 1166q-39 0 -67.5 18.5t-41.5 46t-13 60.5q0 50 32 87t90 37t90 -37t32 -87.5t-32 -87.5t-90 -37zM92 509q0 157 49 276t151 189t246 70q62 0 116.5 -15t106 -49t91 -97t59.5 -150l-119 -32q-32 122 -91.5 180.5t-156.5 58.5q-154 0 -230.5 -114.5 t-76.5 -313.5q0 -97 17 -174t51.5 -135.5t92 -90t133.5 -31.5q199 0 268 235l109 -34q-18 -81 -57.5 -142t-92 -96t-110.5 -51.5t-120 -16.5q-212 0 -324 145.5t-112 387.5z" />
<glyph unicode="&#x10c;" horiz-adv-x="1338" d="M114 0zM823 1613h-195l-145 320h92l150 -228l151 228h92zM738 1491q199 0 338.5 -98.5t192.5 -290.5l-134 -31q-36 140 -136 221.5t-266 81.5q-249 0 -357.5 -162t-108.5 -474q0 -133 13.5 -232t46.5 -179t86.5 -130.5t133.5 -77t189 -26.5q311 0 413 284l125 -39 q-60 -181 -203.5 -272t-342.5 -91q-310 0 -462 181.5t-152 581.5q0 386 163 569.5t461 183.5z" />
<glyph unicode="&#x10d;" horiz-adv-x="979" d="M92 0zM630 1172h-195l-145 320h92l150 -228l151 228h92zM92 509q0 157 49 276t151 189t246 70q62 0 116.5 -15t106 -49t91 -97t59.5 -150l-119 -32q-32 122 -91.5 180.5t-156.5 58.5q-154 0 -230.5 -114.5t-76.5 -313.5q0 -97 17 -174t51.5 -135.5t92 -90t133.5 -31.5 q199 0 268 235l109 -34q-18 -81 -57.5 -142t-92 -96t-110.5 -51.5t-120 -16.5q-212 0 -324 145.5t-112 387.5z" />
<glyph unicode="&#x10e;" horiz-adv-x="1400" d="M148 0zM778 1613h-195l-145 320h92l150 -228l151 228h92zM653 1350h-359v-1236h303q155 0 259 33.5t168.5 110.5t92 192t27.5 287q0 154 -23 262.5t-78 190t-151.5 121t-238.5 39.5zM148 1464h504q159 0 274 -37.5t197.5 -122t123 -225t40.5 -341.5q0 -266 -70 -429 t-209.5 -236t-362.5 -73h-497v1464zM706 1464zM700 1464zM700 1464zM700 1464z" />
<glyph unicode="&#x10f;" horiz-adv-x="1059" d="M90 0zM90 500q0 253 102 398.5t290 145.5q229 0 310 -181v611h143v-1474h-114l-19 172q-39 -90 -124.5 -143t-191.5 -53q-184 0 -290 143.5t-106 380.5zM504 81q45 0 81 7.5t78 33t70 69t46.5 122.5t18.5 186q0 130 -28.5 226t-96.5 155.5t-171 59.5q-127 0 -197 -120.5 t-70 -323.5q0 -182 72 -298.5t197 -116.5zM1122 1474h200v-85q-5 -153 -19 -212q-27 -114 -118 -176l-49 62q27 21 52.5 74.5t27.5 133.5l-94 13v190z" />
<glyph unicode="&#x110;" horiz-adv-x="1391" d="M0 0zM0 702v86h140v676h504q159 0 272.5 -37.5t194.5 -122t120 -225t39 -341.5q0 -397 -150 -567.5t-483 -170.5h-497v702h-140zM645 1350h-359v-562h264v-86h-264v-588h303q155 0 257.5 33.5t165.5 110.5t89 191.5t26 287.5q0 123 -13 215t-46 169.5t-87.5 126.5 t-138 75.5t-197.5 26.5z" />
<glyph unicode="&#x111;" horiz-adv-x="1024" d="M504 1196v86h520v-86h-520zM96 500q0 253 100.5 398.5t287.5 145.5q112 0 194 -45.5t116 -135.5v611h143v-1474h-114l-19 172q-39 -90 -124.5 -143t-191.5 -53q-184 0 -288 143t-104 381zM506 81q45 0 81 7.5t78 33t70 69t46.5 122.5t18.5 186q0 99 -14 175t-46.5 138 t-92 95t-143.5 33q-126 0 -194 -118.5t-68 -322.5q0 -184 70 -301t194 -117z" />
<glyph unicode="&#x112;" horiz-adv-x="1143" d="M148 0zM415 1660v110h454v-110h-454zM1128 0h-980v1464h969v-112h-823v-514h716v-115h-716v-610h834v-113z" />
<glyph unicode="&#x113;" d="M92 0zM299 1219v110h454v-110h-454zM532 1044q104 0 183.5 -36.5t127.5 -102t72 -151.5t24 -190q0 -34 -3 -60h-699q0 -87 17 -161.5t51.5 -134t94 -93.5t137.5 -34q101 0 166 46.5t92 130.5l110 -24q-23 -85 -81 -144.5t-130 -86t-153 -27.5h-4q-113 0 -200.5 44 t-140 119.5t-78.5 170t-26 202.5q0 239 116.5 385.5t323.5 146.5zM802 597q-1 164 -68 254t-206 90q-67 0 -120 -27t-87.5 -75t-54.5 -109t-26 -133h562z" />
<glyph unicode="&#x118;" horiz-adv-x="1143" d="M148 0zM998 0q-3 -6 -11.5 -24.5t-12 -26.5t-11.5 -25.5t-11.5 -27t-9.5 -24.5t-9 -25.5t-6 -23t-4.5 -23t-1.5 -19.5q0 -64 73 -64q13 0 35 5v-83q-32 -8 -65 -8q-76 0 -120 37t-44 91q0 62 43.5 137t83.5 104h71zM1128 0h-980v1464h969v-112h-823v-514h716v-115h-716 v-610h834v-113z" />
<glyph unicode="&#x119;" d="M92 0zM675 0q-3 -6 -11.5 -24.5t-12 -26.5t-11.5 -25.5t-11.5 -27t-9.5 -24.5t-9 -25.5t-6 -23t-4.5 -23t-1.5 -19.5q0 -64 73 -64q13 0 35 5v-83q-32 -8 -65 -8q-76 0 -120 37t-44 91q0 62 43.5 137t83.5 104h71zM532 1044q104 0 183.5 -36.5t127.5 -102t72 -151.5 t24 -190q0 -34 -3 -60h-699q0 -87 17 -161.5t51.5 -134t94 -93.5t137.5 -34q101 0 166 46.5t92 130.5l110 -24q-23 -85 -81 -144.5t-130 -86t-153 -27.5h-4q-113 0 -200.5 44t-140 119.5t-78.5 170t-26 202.5q0 239 116.5 385.5t323.5 146.5zM802 597q-1 164 -68 254 t-206 90q-67 0 -120 -27t-87.5 -75t-54.5 -109t-26 -133h562z" />
<glyph unicode="&#x11a;" horiz-adv-x="1143" d="M148 0zM743 1613h-195l-145 320h92l150 -228l151 228h92zM1128 0h-980v1464h969v-112h-823v-514h716v-115h-716v-610h834v-113z" />
<glyph unicode="&#x11b;" d="M92 0zM625 1172h-195l-145 320h92l150 -228l151 228h92zM532 1044q104 0 183.5 -36.5t127.5 -102t72 -151.5t24 -190q0 -34 -3 -60h-699q0 -87 17 -161.5t51.5 -134t94 -93.5t137.5 -34q101 0 166 46.5t92 130.5l110 -24q-23 -85 -81 -144.5t-130 -86t-153 -27.5h-4 q-113 0 -200.5 44t-140 119.5t-78.5 170t-26 202.5q0 239 116.5 385.5t323.5 146.5zM802 597q-1 164 -68 254t-206 90q-67 0 -120 -27t-87.5 -75t-54.5 -109t-26 -133h562z" />
<glyph unicode="&#x11c;" horiz-adv-x="1374" d="M114 0zM619 1933h195l175 -320h-92l-181 218l-180 -218h-92zM735 1491q173 0 306 -86.5t195 -254.5l-122 -54q-103 278 -380 278q-245 0 -356 -162t-111 -491q0 -155 23.5 -268.5t75.5 -195.5t140 -123t213 -41q65 0 130.5 21.5t123.5 63t94.5 111t36.5 155.5v220h-372 v125h516v-208l-10 -581h-93l-32 191q-57 -95 -167.5 -155t-244.5 -60q-587 0 -587 746q0 202 44 351t126.5 240t194.5 134.5t256 43.5z" />
<glyph unicode="&#x11d;" horiz-adv-x="1077" d="M94 0zM447 1492h195l175 -320h-92l-181 218l-180 -218h-92zM818 543q0 98 -21 172.5t-51.5 116t-73 67t-79 33.5t-75.5 8q-73 0 -129 -34.5t-88.5 -93.5t-48.5 -130t-16 -152q0 -215 74.5 -332t202.5 -117q45 0 84 9.5t81 37.5t71.5 73.5t49 124.5t19.5 183v34zM527 -429 q-266 0 -363 162l83 79q82 -132 287 -132q143 0 213.5 91t70.5 257v102q-117 -154 -310 -154q-196 0 -305 151.5t-109 398.5q0 151 45.5 266.5t138.5 183.5t224 68q199 0 327 -153l8 132h114v-1003q0 -199 -109.5 -324t-314.5 -125z" />
<glyph unicode="&#x11e;" horiz-adv-x="1374" d="M114 0zM708 1624q-111 0 -192 67t-84 188h116q0 -77 43 -114t117 -37t117 37t43 114h116q-3 -121 -84 -188t-192 -67zM735 1491q173 0 306 -86.5t195 -254.5l-122 -54q-103 278 -380 278q-245 0 -356 -162t-111 -491q0 -155 23.5 -268.5t75.5 -195.5t140 -123t213 -41 q65 0 130.5 21.5t123.5 63t94.5 111t36.5 155.5v220h-372v125h516v-208l-10 -581h-93l-32 191q-57 -95 -167.5 -155t-244.5 -60q-587 0 -587 746q0 202 44 351t126.5 240t194.5 134.5t256 43.5z" />
<glyph unicode="&#x11f;" horiz-adv-x="1077" d="M94 0zM818 543q0 98 -21 172.5t-51.5 116t-73 67t-79 33.5t-75.5 8q-73 0 -129 -34.5t-88.5 -93.5t-48.5 -130t-16 -152q0 -215 74.5 -332t202.5 -117q45 0 84 9.5t81 37.5t71.5 73.5t49 124.5t19.5 183v34zM527 -429q-266 0 -363 162l83 79q82 -132 287 -132 q143 0 213.5 91t70.5 257v102q-117 -154 -310 -154q-196 0 -305 151.5t-109 398.5q0 151 45.5 266.5t138.5 183.5t224 68q199 0 327 -153l8 132h114v-1003q0 -199 -109.5 -324t-314.5 -125zM539 1183q-111 0 -192 67t-84 188h116q0 -77 43 -114t117 -37t117 37t43 114h116 q-3 -121 -84 -188t-192 -67z" />
<glyph unicode="&#x120;" horiz-adv-x="1374" d="M114 0zM719 1593q-39 0 -67.5 18.5t-41.5 46t-13 60.5q0 50 32 87t90 37t90 -37t32 -87.5t-32 -87.5t-90 -37zM735 1491q173 0 306 -86.5t195 -254.5l-122 -54q-103 278 -380 278q-245 0 -356 -162t-111 -491q0 -155 23.5 -268.5t75.5 -195.5t140 -123t213 -41 q65 0 130.5 21.5t123.5 63t94.5 111t36.5 155.5v220h-372v125h516v-208l-10 -581h-93l-32 191q-57 -95 -167.5 -155t-244.5 -60q-587 0 -587 746q0 202 44 351t126.5 240t194.5 134.5t256 43.5z" />
<glyph unicode="&#x121;" horiz-adv-x="1077" d="M94 0zM524 1152q-39 0 -67.5 18.5t-41.5 46t-13 60.5q0 50 32 87t90 37t90 -37t32 -87.5t-32 -87.5t-90 -37zM818 543q0 98 -21 172.5t-51.5 116t-73 67t-79 33.5t-75.5 8q-73 0 -129 -34.5t-88.5 -93.5t-48.5 -130t-16 -152q0 -215 74.5 -332t202.5 -117q45 0 84 9.5 t81 37.5t71.5 73.5t49 124.5t19.5 183v34zM527 -429q-266 0 -363 162l83 79q82 -132 287 -132q143 0 213.5 91t70.5 257v102q-117 -154 -310 -154q-196 0 -305 151.5t-109 398.5q0 151 45.5 266.5t138.5 183.5t224 68q199 0 327 -153l8 132h114v-1003q0 -199 -109.5 -324 t-314.5 -125z" />
<glyph unicode="&#x122;" horiz-adv-x="1374" d="M114 0zM706 0zM598 -100h200v-85q-5 -153 -19 -212q-27 -114 -118 -176l-49 62q26 20 52 79t28 139h-94v193zM718 0zM718 0zM718 0zM718 0zM735 1491q173 0 306 -86.5t195 -254.5l-122 -54q-103 278 -380 278q-245 0 -356 -162t-111 -491q0 -155 23.5 -268.5t75.5 -195.5 t140 -123t213 -41q65 0 130.5 21.5t123.5 63t94.5 111t36.5 155.5v220h-372v125h516v-208l-10 -581h-93l-32 191q-57 -95 -167.5 -155t-244.5 -60q-587 0 -587 746q0 202 44 351t126.5 240t194.5 134.5t256 43.5z" />
<glyph unicode="&#x123;" horiz-adv-x="1077" d="M94 0zM818 543q0 98 -21 172.5t-51.5 116t-73 67t-79 33.5t-75.5 8q-73 0 -129 -34.5t-88.5 -93.5t-48.5 -130t-16 -152q0 -215 74.5 -332t202.5 -117q45 0 84 9.5t81 37.5t71.5 73.5t49 124.5t19.5 183v34zM527 -429q-266 0 -363 162l83 79q82 -132 287 -132 q143 0 213.5 91t70.5 257v102q-117 -154 -310 -154q-196 0 -305 151.5t-109 398.5q0 151 45.5 266.5t138.5 183.5t224 68q199 0 327 -153l8 132h114v-1003q0 -199 -109.5 -324t-314.5 -125zM517 1023zM625 1123h-200v85q5 153 19 212q27 114 118 176l49 -62q-26 -20 -52 -79 t-28 -139h94v-193zM505 1023zM505 1023zM505 1023zM505 1023z" />
<glyph unicode="&#x125;" horiz-adv-x="1106" d="M557 1823h135l165 -320h-92l-140 228l-151 -228h-92zM602 940q-74 0 -131.5 -25t-94.5 -66.5t-61 -101t-33.5 -124.5t-9.5 -140v-483h-142v1473h142v-420v-191q117 182 351 182q68 0 122.5 -15.5t91 -40.5t63.5 -63t42 -76t24 -87.5t11.5 -89.5t2.5 -89v-583h-142v594 q0 171 -52.5 258.5t-183.5 87.5z" />
<glyph unicode="&#x126;" horiz-adv-x="1457" d="M48 1144v86h100v234h146v-234h870v234h145v-234h91v-86h-91v-1144h-145v720h-870v-720h-146v1144h-100zM1164 1144h-870v-308h870v308z" />
<glyph unicode="&#x127;" horiz-adv-x="1117" d="M-1 1205v94h141v174h143v-174h267v-94h-267v-152q0 -128 -1 -191q117 182 352 182q68 0 122.5 -15.5t91 -40.5t63.5 -63t42 -76t24 -87.5t11.5 -89.5t2.5 -89v-583h-142v594q0 171 -52.5 258.5t-183.5 87.5q-74 0 -131.5 -25t-94.5 -66.5t-61 -101t-33.5 -124.5 t-9.5 -140v-483h-143v1205h-141z" />
<glyph unicode="&#x128;" horiz-adv-x="464" d="M0 0zM101 1729q21 -1 119.5 -43.5t151.5 -42.5t94 38t41 120q0 11 -2 35h-97q0 -96 -39 -96q-21 0 -131 46t-153 46q-128 0 -128 -150q0 -26 2 -41h96q0 43 13.5 65.5t32.5 22.5zM309 0h-146v1464h146v-1464z" />
<glyph unicode="&#x129;" horiz-adv-x="411" d="M0 0zM75 1288q21 -1 119.5 -43.5t151.5 -42.5t94 38t41 120q0 11 -2 35h-97q0 -96 -39 -96q-21 0 -131 46t-153 46q-128 0 -128 -150q0 -26 2 -41h96q0 43 13.5 65.5t32.5 22.5zM140 0v1023h142v-1023h-142z" />
<glyph unicode="&#x12a;" horiz-adv-x="464" d="M5 0zM5 1660v110h454v-110h-454zM309 0h-146v1464h146v-1464z" />
<glyph unicode="&#x12b;" horiz-adv-x="411" d="M0 0zM-21 1219v110h454v-110h-454zM140 0v1023h142v-1023h-142z" />
<glyph unicode="&#x12c;" horiz-adv-x="464" d="M0 0zM232 1624q-111 0 -192 67t-84 188h116q0 -77 43 -114t117 -37t117 37t43 114h116q-3 -121 -84 -188t-192 -67zM309 0h-146v1464h146v-1464z" />
<glyph unicode="&#x12d;" horiz-adv-x="411" d="M0 0zM140 0v1023h142v-1023h-142zM206 1183q-111 0 -192 67t-84 188h116q0 -77 43 -114t117 -37t117 37t43 114h116q-3 -121 -84 -188t-192 -67z" />
<glyph unicode="&#x12e;" horiz-adv-x="464" d="M66 0zM264 0q-3 -6 -11.5 -24.5t-12 -26.5t-11.5 -25.5t-11.5 -27t-9.5 -24.5t-9 -25.5t-6 -23t-4.5 -23t-1.5 -19.5q0 -64 73 -64q13 0 35 5v-83q-32 -8 -65 -8q-76 0 -120 37t-44 91q0 62 43.5 137t83.5 104h71zM309 0h-146v1464h146v-1464z" />
<glyph unicode="&#x12f;" horiz-adv-x="401" d="M43 0zM241 12q-3 -6 -11.5 -24.5t-12 -26.5t-11.5 -25.5t-11.5 -27t-9.5 -24.5t-9 -25.5t-6 -23t-4.5 -23t-1.5 -19.5q0 -64 73 -64q13 0 35 5v-83q-32 -8 -65 -8q-76 0 -120 37t-44 91q0 62 43.5 137t83.5 104h71zM135 1242v179h141v-179h-141zM137 0v1023h142v-1023 h-142z" />
<glyph unicode="&#x130;" horiz-adv-x="464" d="M110 0zM232 1613q-39 0 -67.5 18.5t-41.5 46t-13 60.5q0 50 32 87t90 37t90 -37t32 -87.5t-32 -87.5t-90 -37zM309 0h-146v1464h146v-1464z" />
<glyph unicode="&#x131;" horiz-adv-x="411" d="M140 0v1023h142v-1023h-142z" />
<glyph unicode="&#x132;" horiz-adv-x="1418" d="M163 0zM485 334l130 35q31 -138 91 -207t175 -69q58 0 102 16.5t71.5 49.5t44.5 69.5t25 93t10.5 103.5t2.5 116v923h145v-920q0 -294 -92.5 -431.5t-320.5 -137.5q-313 0 -384 359zM309 0h-146v1464h146v-1464z" />
<glyph unicode="&#x133;" horiz-adv-x="883" d="M135 0zM615 -91v1114h142v-1035q0 -85 -7.5 -137t-30 -95t-66.5 -62t-115 -19q-92 0 -162 41l24 107q84 -31 119 -31q47 0 71.5 26t24.5 91zM617 1242v179h141v-179h-141zM135 1242v179h141v-179h-141zM137 0v1023h142v-1023h-142z" />
<glyph unicode="&#x134;" horiz-adv-x="954" d="M21 0zM398 1933h195l175 -320h-92l-181 218l-180 -218h-92zM21 334l130 35q31 -138 91 -207t175 -69q58 0 102 16.5t71.5 49.5t44.5 69.5t25 93t10.5 103.5t2.5 116v923h145v-920q0 -294 -92.5 -431.5t-320.5 -137.5q-313 0 -384 359z" />
<glyph unicode="&#x135;" horiz-adv-x="530" d="M33 0zM262 -87v1110h142v-1035q0 -85 -7.5 -137t-30 -95t-66.5 -62t-115 -19q-77 0 -152 44l24 90q62 -23 109 -23q96 0 96 127zM233 1466h195l175 -320h-92l-181 218l-180 -218h-92z" />
<glyph unicode="&#x136;" horiz-adv-x="1252" d="M148 0zM650 0zM542 -100h200v-85q-5 -153 -19 -212q-27 -114 -118 -176l-49 62q26 20 52 79t28 139h-94v193zM662 0zM662 0zM662 0zM662 0zM1180 1466l-515 -540l579 -926h-167l-515 828l-268 -275v-553h-146v1466h146v-740l709 740h177z" />
<glyph unicode="&#x137;" horiz-adv-x="1008" d="M130 0zM797 1023h162l-381 -372l440 -651h-160l-373 565l-213 -196v-369h-142v1477h141v-966zM510 0zM402 -100h200v-85q-5 -153 -19 -212q-27 -114 -118 -176l-49 62q26 20 52 79t28 139h-94v193zM522 0zM522 0zM522 0zM522 0z" />
<glyph unicode="&#x138;" horiz-adv-x="1010" d="M797 1023h162l-360 -402l419 -621h-160l-354 544l-232 -245v-299h-142v1024h141v-578z" />
<glyph unicode="&#x139;" d="M148 0zM515 1933h195l-308 -320h-92zM1041 0h-893v1464h146v-1351h747v-113z" />
<glyph unicode="&#x13a;" horiz-adv-x="406" d="M134 0zM134 0v1474h142v-1474h-142zM363 1874h195l-308 -320h-92z" />
<glyph unicode="&#x13b;" d="M148 0zM607 0zM499 -100h200v-85q-5 -153 -19 -212q-27 -114 -118 -176l-49 62q26 20 52 79t28 139h-94v193zM619 0zM619 0zM619 0zM619 0zM1041 0h-893v1464h146v-1351h747v-113z" />
<glyph unicode="&#x13c;" horiz-adv-x="406" d="M101 0zM134 0v1474h142v-1474h-142zM209 0zM101 -100h200v-85q-5 -153 -19 -212q-27 -114 -118 -176l-49 62q26 20 52 79t28 139h-94v193zM221 0zM221 0zM221 0zM221 0z" />
<glyph unicode="&#x13d;" d="M148 0zM769 1491h200v-85q-5 -153 -19 -212q-27 -114 -118 -176l-49 62q27 21 52.5 74.5t27.5 133.5l-94 13v190zM1041 0h-893v1464h146v-1351h747v-113z" />
<glyph unicode="&#x13e;" horiz-adv-x="406" d="M134 0zM417 1474h200v-85q-5 -153 -19 -212q-27 -114 -118 -176l-49 62q27 21 52.5 74.5t27.5 133.5l-94 13v190zM134 0v1474h142v-1474h-142z" />
<glyph unicode="&#x13f;" d="M148 0zM750 853h164v-215h-164v215zM1041 0h-893v1464h146v-1351h747v-113z" />
<glyph unicode="&#x140;" horiz-adv-x="406" d="M134 0zM548 758h164v-215h-164v215zM134 0v1474h142v-1474h-142z" />
<glyph unicode="&#x141;" horiz-adv-x="1055" d="M-1 658v126l141 63v617h146v-551l246 111v-126l-246 -111v-674h747v-113h-893v721z" />
<glyph unicode="&#x142;" horiz-adv-x="421" d="M-26 652v135l166 92v595h143v-525l165 85v-135l-165 -85v-815h-143v745z" />
<glyph unicode="&#x143;" horiz-adv-x="1491" d="M148 0zM751 1933h195l-308 -320h-92zM148 0v1464h163l903 -1243v393v850h129v-1464h-132l-930 1290v-415v-875h-133z" />
<glyph unicode="&#x144;" horiz-adv-x="1085" d="M127 0zM670 1492h195l-308 -320h-92zM127 0v1023h138v-32v-62.5v-70.5v-28q19 55 59 97.5t90.5 67t103.5 37t105 12.5q59 0 107.5 -11t82.5 -32.5t60 -47t42 -62.5t26.5 -70.5t15.5 -78.5t6.5 -79t1.5 -79v-584h-142v603q0 64 -5.5 112t-20.5 90t-39.5 68.5t-63 41.5 t-91.5 15q-77 0 -135.5 -22t-96 -60t-60.5 -94t-32.5 -117.5t-9.5 -137.5v-499h-142z" />
<glyph unicode="&#x145;" horiz-adv-x="1491" d="M148 0zM784 0zM676 -100h200v-85q-5 -153 -19 -212q-27 -114 -118 -176l-49 62q26 20 52 79t28 139h-94v193zM796 0zM796 0zM796 0zM796 0zM148 0v1464h163l903 -1243v393v850h129v-1464h-132l-930 1290v-415v-875h-133z" />
<glyph unicode="&#x146;" horiz-adv-x="1085" d="M127 0zM560 0zM452 -100h200v-85q-5 -153 -19 -212q-27 -114 -118 -176l-49 62q26 20 52 79t28 139h-94v193zM572 0zM572 0zM572 0zM572 0zM127 0v1023h138v-32v-62.5v-70.5v-28q19 55 59 97.5t90.5 67t103.5 37t105 12.5q59 0 107.5 -11t82.5 -32.5t60 -47t42 -62.5 t26.5 -70.5t15.5 -78.5t6.5 -79t1.5 -79v-584h-142v603q0 64 -5.5 112t-20.5 90t-39.5 68.5t-63 41.5t-91.5 15q-77 0 -135.5 -22t-96 -60t-60.5 -94t-32.5 -117.5t-9.5 -137.5v-499h-142z" />
<glyph unicode="&#x147;" horiz-adv-x="1491" d="M148 0zM861 1613h-195l-145 320h92l150 -228l151 228h92zM148 0v1464h163l903 -1243v393v850h129v-1464h-132l-930 1290v-415v-875h-133z" />
<glyph unicode="&#x148;" horiz-adv-x="1085" d="M127 0zM703 1172h-195l-145 320h92l150 -228l151 228h92zM127 0v1023h138v-32v-62.5v-70.5v-28q19 55 59 97.5t90.5 67t103.5 37t105 12.5q59 0 107.5 -11t82.5 -32.5t60 -47t42 -62.5t26.5 -70.5t15.5 -78.5t6.5 -79t1.5 -79v-584h-142v603q0 64 -5.5 112t-20.5 90 t-39.5 68.5t-63 41.5t-91.5 15q-77 0 -135.5 -22t-96 -60t-60.5 -94t-32.5 -117.5t-9.5 -137.5v-499h-142z" />
<glyph unicode="&#x14c;" horiz-adv-x="1449" d="M114 0zM517 1660v110h454v-110h-454zM723 1491q146 0 256.5 -42t191.5 -130t122.5 -233.5t41.5 -344.5q0 -400 -155 -583t-458 -183q-147 0 -257 42t-190 132t-120.5 238t-40.5 353q0 200 41.5 345.5t121.5 234t190.5 130t255.5 41.5zM722 1374q-104 0 -182.5 -29 t-130 -81.5t-83.5 -132.5t-45.5 -174.5t-13.5 -215.5q0 -337 104 -492.5t352 -155.5q249 0 353 154t104 493q0 121 -13.5 216t-46 175t-84.5 132.5t-130.5 81.5t-183.5 29z" />
<glyph unicode="&#x14d;" horiz-adv-x="1064" d="M92 0zM305 1219v110h454v-110h-454zM533 1044q197 0 318 -135.5t121 -395.5q0 -258 -118.5 -397.5t-321.5 -139.5t-321.5 138.5t-118.5 395.5q0 262 121 398t320 136zM532 940q-84 0 -144 -36.5t-91.5 -100.5t-45.5 -135t-14 -155q0 -67 8 -126t29 -116.5t53.5 -98.5 t85 -66t120.5 -25q67 0 119.5 25t85 65.5t53.5 97.5t29 116t8 126q0 66 -8.5 125t-29.5 116t-53.5 97.5t-85 65.5t-119.5 25z" />
<glyph unicode="&#x14e;" horiz-adv-x="1449" d="M114 0zM725 1624q-111 0 -192 67t-84 188h116q0 -77 43 -114t117 -37t117 37t43 114h116q-3 -121 -84 -188t-192 -67zM723 1491q146 0 256.5 -42t191.5 -130t122.5 -233.5t41.5 -344.5q0 -400 -155 -583t-458 -183q-147 0 -257 42t-190 132t-120.5 238t-40.5 353 q0 200 41.5 345.5t121.5 234t190.5 130t255.5 41.5zM722 1374q-104 0 -182.5 -29t-130 -81.5t-83.5 -132.5t-45.5 -174.5t-13.5 -215.5q0 -337 104 -492.5t352 -155.5q249 0 353 154t104 493q0 121 -13.5 216t-46 175t-84.5 132.5t-130.5 81.5t-183.5 29z" />
<glyph unicode="&#x14f;" horiz-adv-x="1064" d="M92 0zM532 1183q-111 0 -192 67t-84 188h116q0 -77 43 -114t117 -37t117 37t43 114h116q-3 -121 -84 -188t-192 -67zM533 1044q197 0 318 -135.5t121 -395.5q0 -258 -118.5 -397.5t-321.5 -139.5t-321.5 138.5t-118.5 395.5q0 262 121 398t320 136zM532 940 q-84 0 -144 -36.5t-91.5 -100.5t-45.5 -135t-14 -155q0 -67 8 -126t29 -116.5t53.5 -98.5t85 -66t120.5 -25q67 0 119.5 25t85 65.5t53.5 97.5t29 116t8 126q0 66 -8.5 125t-29.5 116t-53.5 97.5t-85 65.5t-119.5 25z" />
<glyph unicode="&#x150;" horiz-adv-x="1449" d="M114 0zM659 1933h189l-228 -320h-66zM957 1933h195l-257 -320h-73zM723 1491q146 0 256.5 -42t191.5 -130t122.5 -233.5t41.5 -344.5q0 -400 -155 -583t-458 -183q-147 0 -257 42t-190 132t-120.5 238t-40.5 353q0 200 41.5 345.5t121.5 234t190.5 130t255.5 41.5z M722 1374q-104 0 -182.5 -29t-130 -81.5t-83.5 -132.5t-45.5 -174.5t-13.5 -215.5q0 -337 104 -492.5t352 -155.5q249 0 353 154t104 493q0 121 -13.5 216t-46 175t-84.5 132.5t-130.5 81.5t-183.5 29z" />
<glyph unicode="&#x151;" horiz-adv-x="1064" d="M92 0zM421 1492h189l-228 -320h-66zM719 1492h195l-257 -320h-73zM533 1044q197 0 318 -135.5t121 -395.5q0 -258 -118.5 -397.5t-321.5 -139.5t-321.5 138.5t-118.5 395.5q0 262 121 398t320 136zM532 940q-84 0 -144 -36.5t-91.5 -100.5t-45.5 -135t-14 -155 q0 -67 8 -126t29 -116.5t53.5 -98.5t85 -66t120.5 -25q67 0 119.5 25t85 65.5t53.5 97.5t29 116t8 126q0 66 -8.5 125t-29.5 116t-53.5 97.5t-85 65.5t-119.5 25z" />
<glyph unicode="&#x152;" horiz-adv-x="2171" d="M720 1374q104 0 182 -29t127.5 -81t80 -133t42.5 -174.5t12 -216.5q0 -171 -21.5 -288.5t-72.5 -200t-136.5 -120.5t-212.5 -38q-248 0 -352 155.5t-104 492.5q0 121 13.5 215.5t45.5 174.5t83.5 132.5t130 81.5t182.5 29zM2121 113h-811v610h686v115h-686v514h800v112 h-947q1 -112 0 -176q-129 203 -442 203q-145 0 -255.5 -41.5t-190.5 -130t-121.5 -234t-41.5 -345.5q0 -205 40.5 -353t120.5 -238t190 -132t257 -42q159 0 268 49.5t176 155.5v-180h957v113zM1086 1464z" />
<glyph unicode="&#x153;" horiz-adv-x="1878" d="M884 510q0 85 -14 157t-45.5 136t-91 100.5t-142.5 36.5q-67 0 -119.5 -25t-84.5 -65.5t-52 -98t-28 -115.5t-8 -124q0 -85 13.5 -157t45 -136.5t91 -101.5t143.5 -37q83 0 142.5 36.5t91 100.5t45 135.5t13.5 157.5zM1315 942q-132 0 -205.5 -96.5t-81.5 -253.5h561 q-2 165 -69 257.5t-205 92.5zM1319 1044q137 0 230.5 -66.5t135 -173t41.5 -246.5q0 -3 -1.5 -26t-2.5 -32h-696q0 -67 9 -125t30.5 -113.5t55.5 -95t87.5 -63t121.5 -23.5q104 0 172 67.5t106 169.5l96 -41q-38 -143 -139.5 -220.5t-232.5 -79.5q-265 0 -375 223 q-53 -110 -147.5 -166.5t-218.5 -56.5q-201 0 -318 139t-117 396q0 262 119.5 397.5t317.5 135.5q121 0 216.5 -57t149.5 -168q53 108 145 166.5t215 58.5zM939 1023z" />
<glyph unicode="&#x154;" horiz-adv-x="1295" d="M148 0zM653 1933h195l-308 -320h-92zM1214 1075q0 -150 -77.5 -243.5t-238.5 -136.5l340 -695h-156l-332 673h-457v-673h-145v1464h529q285 0 411 -94.5t126 -294.5zM293 1356v-570h351q72 0 126.5 5t113 23t96 48t61.5 83.5t24 127.5q0 76 -23 129.5t-57.5 83t-91 46 t-105.5 20.5t-120 4h-375z" />
<glyph unicode="&#x155;" horiz-adv-x="577" d="M122 0zM444 1492h195l-308 -320h-92zM260 1023v-192q28 69 81 114.5t108.5 62t116.5 16.5v-129q-83 0 -143.5 -30t-94 -83t-49 -115t-15.5 -135v-532h-142v1023h138z" />
<glyph unicode="&#x156;" horiz-adv-x="1295" d="M148 0zM685 0zM577 -100h200v-85q-5 -153 -19 -212q-27 -114 -118 -176l-49 62q26 20 52 79t28 139h-94v193zM697 0zM697 0zM697 0zM697 0zM1214 1075q0 -150 -77.5 -243.5t-238.5 -136.5l340 -695h-156l-332 673h-457v-673h-145v1464h529q285 0 411 -94.5t126 -294.5z M293 1356v-570h351q72 0 126.5 5t113 23t96 48t61.5 83.5t24 127.5q0 76 -23 129.5t-57.5 83t-91 46t-105.5 20.5t-120 4h-375z" />
<glyph unicode="&#x157;" horiz-adv-x="577" d="M118 0zM226 0zM118 -100h200v-85q-5 -153 -19 -212q-27 -114 -118 -176l-49 62q26 20 52 79t28 139h-94v193zM238 0zM238 0zM238 0zM238 0zM260 1023v-192q28 69 81 114.5t108.5 62t116.5 16.5v-129q-83 0 -143.5 -30t-94 -83t-49 -115t-15.5 -135v-532h-142v1023h138z " />
<glyph unicode="&#x158;" horiz-adv-x="1295" d="M148 0zM745 1613h-195l-145 320h92l150 -228l151 228h92zM1214 1075q0 -150 -77.5 -243.5t-238.5 -136.5l340 -695h-156l-332 673h-457v-673h-145v1464h529q285 0 411 -94.5t126 -294.5zM293 1356v-570h351q72 0 126.5 5t113 23t96 48t61.5 83.5t24 127.5q0 76 -23 129.5 t-57.5 83t-91 46t-105.5 20.5t-120 4h-375z" />
<glyph unicode="&#x159;" horiz-adv-x="577" d="M72 0zM412 1172h-195l-145 320h92l150 -228l151 228h92zM260 1023v-192q28 69 81 114.5t108.5 62t116.5 16.5v-129q-83 0 -143.5 -30t-94 -83t-49 -115t-15.5 -135v-532h-142v1023h138z" />
<glyph unicode="&#x15a;" horiz-adv-x="1216" d="M45 0zM715 1933h195l-308 -320h-92zM618 1482q177 0 299.5 -59t209.5 -192l-108 -80q-59 104 -159 158.5t-221 54.5q-157 0 -256 -58t-99 -178q0 -47 21 -86t50.5 -64t79 -49t89 -37t98.5 -32t91 -31q67 -26 110 -43.5t95 -43.5t84 -48.5t65 -54.5t50.5 -67t29 -80.5 t11.5 -98.5q0 -197 -147.5 -307.5t-395.5 -110.5q-71 0 -140.5 12t-141 41t-128.5 73t-100.5 114t-59.5 158l123 53q45 -165 157.5 -245t298.5 -80q57 0 109 8.5t102.5 29.5t87.5 52.5t59.5 82t22.5 114.5q0 41 -11 75t-23 58.5t-48 50.5t-57 40.5t-81 38.5t-89.5 34.5 t-110.5 38.5q-13 5 -20 7q-178 62 -248 101q-161 89 -183 234q-3 24 -3 50q0 91 41 163t110.5 115.5t155 65.5t180.5 22z" />
<glyph unicode="&#x15b;" horiz-adv-x="953" d="M67 0zM582 1492h195l-308 -320h-92zM841 846q-97 -55 -97 -56q-34 78 -95 112.5t-161 34.5q-124 0 -188 -45t-64 -133q0 -35 13.5 -62t35 -44.5t58.5 -32t71.5 -22.5t86.5 -18q174 -32 261.5 -99.5t87.5 -194.5q0 -151 -101 -230.5t-304 -79.5q-61 0 -117.5 12.5t-109 40 t-92.5 78t-59 118.5l108 44q36 -98 100 -142t183 -44q263 0 263 176q0 96 -60 135.5t-253 79.5q-58 12 -97.5 24.5t-82 34.5t-68 50.5t-42 73.5t-16.5 104q0 135 104.5 209t273.5 74q136 0 222 -45t139 -153z" />
<glyph unicode="&#x15c;" horiz-adv-x="1216" d="M45 0zM517 1933h195l175 -320h-92l-181 218l-180 -218h-92zM618 1482q177 0 299.5 -59t209.5 -192l-108 -80q-59 104 -159 158.5t-221 54.5q-157 0 -256 -58t-99 -178q0 -47 21 -86t50.5 -64t79 -49t89 -37t98.5 -32t91 -31q67 -26 110 -43.5t95 -43.5t84 -48.5t65 -54.5 t50.5 -67t29 -80.5t11.5 -98.5q0 -197 -147.5 -307.5t-395.5 -110.5q-71 0 -140.5 12t-141 41t-128.5 73t-100.5 114t-59.5 158l123 53q45 -165 157.5 -245t298.5 -80q57 0 109 8.5t102.5 29.5t87.5 52.5t59.5 82t22.5 114.5q0 41 -11 75t-23 58.5t-48 50.5t-57 40.5 t-81 38.5t-89.5 34.5t-110.5 38.5q-13 5 -20 7q-178 62 -248 101q-161 89 -183 234q-3 24 -3 50q0 91 41 163t110.5 115.5t155 65.5t180.5 22z" />
<glyph unicode="&#x15d;" horiz-adv-x="953" d="M67 0zM392 1492h195l175 -320h-92l-181 218l-180 -218h-92zM841 846q-97 -55 -97 -56q-34 78 -95 112.5t-161 34.5q-124 0 -188 -45t-64 -133q0 -35 13.5 -62t35 -44.5t58.5 -32t71.5 -22.5t86.5 -18q174 -32 261.5 -99.5t87.5 -194.5q0 -151 -101 -230.5t-304 -79.5 q-61 0 -117.5 12.5t-109 40t-92.5 78t-59 118.5l108 44q36 -98 100 -142t183 -44q263 0 263 176q0 96 -60 135.5t-253 79.5q-58 12 -97.5 24.5t-82 34.5t-68 50.5t-42 73.5t-16.5 104q0 135 104.5 209t273.5 74q136 0 222 -45t139 -153z" />
<glyph unicode="&#x15e;" horiz-adv-x="1216" d="M45 0zM518 -174v164h200v-179q0 -80 -34 -140.5t-102 -60.5q-21 0 -42 9v65q30 -8 37 -8q22 0 31 31t9 119h-99zM618 1482q177 0 299.5 -59t209.5 -192l-108 -80q-59 104 -159 158.5t-221 54.5q-157 0 -256 -58t-99 -178q0 -47 21 -86t50.5 -64t79 -49t89 -37t98.5 -32 t91 -31q67 -26 110 -43.5t95 -43.5t84 -48.5t65 -54.5t50.5 -67t29 -80.5t11.5 -98.5q0 -197 -147.5 -307.5t-395.5 -110.5q-71 0 -140.5 12t-141 41t-128.5 73t-100.5 114t-59.5 158l123 53q45 -165 157.5 -245t298.5 -80q57 0 109 8.5t102.5 29.5t87.5 52.5t59.5 82 t22.5 114.5q0 41 -11 75t-23 58.5t-48 50.5t-57 40.5t-81 38.5t-89.5 34.5t-110.5 38.5q-13 5 -20 7q-178 62 -248 101q-161 89 -183 234q-3 24 -3 50q0 91 41 163t110.5 115.5t155 65.5t180.5 22z" />
<glyph unicode="&#x15f;" horiz-adv-x="953" d="M67 0zM841 846q-97 -55 -97 -56q-34 78 -95 112.5t-161 34.5q-124 0 -188 -45t-64 -133q0 -35 13.5 -62t35 -44.5t58.5 -32t71.5 -22.5t86.5 -18q174 -32 261.5 -99.5t87.5 -194.5q0 -151 -101 -230.5t-304 -79.5q-61 0 -117.5 12.5t-109 40t-92.5 78t-59 118.5l108 44 q36 -98 100 -142t183 -44q263 0 263 176q0 96 -60 135.5t-253 79.5q-58 12 -97.5 24.5t-82 34.5t-68 50.5t-42 73.5t-16.5 104q0 135 104.5 209t273.5 74q136 0 222 -45t139 -153zM382 -174v164h200v-179q0 -80 -34 -140.5t-102 -60.5q-21 0 -42 9v65q30 -8 37 -8 q22 0 31 31t9 119h-99z" />
<glyph unicode="&#x160;" horiz-adv-x="1216" d="M45 0zM705 1613h-195l-145 320h92l150 -228l151 228h92zM618 1482q177 0 299.5 -59t209.5 -192l-108 -80q-59 104 -159 158.5t-221 54.5q-157 0 -256 -58t-99 -178q0 -47 21 -86t50.5 -64t79 -49t89 -37t98.5 -32t91 -31q67 -26 110 -43.5t95 -43.5t84 -48.5t65 -54.5 t50.5 -67t29 -80.5t11.5 -98.5q0 -197 -147.5 -307.5t-395.5 -110.5q-71 0 -140.5 12t-141 41t-128.5 73t-100.5 114t-59.5 158l123 53q45 -165 157.5 -245t298.5 -80q57 0 109 8.5t102.5 29.5t87.5 52.5t59.5 82t22.5 114.5q0 41 -11 75t-23 58.5t-48 50.5t-57 40.5 t-81 38.5t-89.5 34.5t-110.5 38.5q-13 5 -20 7q-178 62 -248 101q-161 89 -183 234q-3 24 -3 50q0 91 41 163t110.5 115.5t155 65.5t180.5 22z" />
<glyph unicode="&#x161;" horiz-adv-x="953" d="M67 0zM570 1172h-195l-145 320h92l150 -228l151 228h92zM841 846q-97 -55 -97 -56q-34 78 -95 112.5t-161 34.5q-124 0 -188 -45t-64 -133q0 -35 13.5 -62t35 -44.5t58.5 -32t71.5 -22.5t86.5 -18q174 -32 261.5 -99.5t87.5 -194.5q0 -151 -101 -230.5t-304 -79.5 q-61 0 -117.5 12.5t-109 40t-92.5 78t-59 118.5l108 44q36 -98 100 -142t183 -44q263 0 263 176q0 96 -60 135.5t-253 79.5q-58 12 -97.5 24.5t-82 34.5t-68 50.5t-42 73.5t-16.5 104q0 135 104.5 209t273.5 74q136 0 222 -45t139 -153z" />
<glyph unicode="&#x164;" horiz-adv-x="1119" d="M9 0zM657 1613h-195l-145 320h92l150 -228l151 228h92zM9 1352v113h1101v-113h-474v-1352h-153v1352h-474z" />
<glyph unicode="&#x165;" horiz-adv-x="630" d="M38 0zM594 125l24 -93q-75 -48 -176 -48q-132 0 -191.5 80.5t-59.5 260.5v599h-153v99h162v327l133 37v-364h224v-99h-224v-663q0 -170 138 -170q46 0 123 34zM617 1387h200v-85q-5 -153 -19 -212q-27 -114 -118 -176l-49 62q27 21 52.5 74.5t27.5 133.5l-94 13v190z" />
<glyph unicode="&#x16a;" horiz-adv-x="1346" d="M123 0zM446 1660v110h454v-110h-454zM123 574v890h160v-866q0 -94 9 -165t35 -136.5t69 -107.5t113.5 -66.5t166.5 -24.5t166 24.5t112.5 66.5t68 107.5t34.5 136.5t9 165v866h157v-883q0 -313 -135 -459.5t-418 -146.5q-276 0 -411.5 143.5t-135.5 455.5z" />
<glyph unicode="&#x16b;" horiz-adv-x="1127" d="M121 0zM311 1219v110h454v-110h-454zM813 436v587h142v-1023h-138v192q-40 -106 -142.5 -161t-216.5 -55q-65 0 -117.5 15.5t-87 40t-60 63t-39 75.5t-21.5 87.5t-10 89t-2 89.5v587h142v-617q0 -158 49 -238.5t171 -80.5q75 0 135 25t95.5 62.5t59 86t32 92t8.5 83.5z " />
<glyph unicode="&#x16c;" horiz-adv-x="1346" d="M123 0zM673 1624q-111 0 -192 67t-84 188h116q0 -77 43 -114t117 -37t117 37t43 114h116q-3 -121 -84 -188t-192 -67zM123 574v890h160v-866q0 -94 9 -165t35 -136.5t69 -107.5t113.5 -66.5t166.5 -24.5t166 24.5t112.5 66.5t68 107.5t34.5 136.5t9 165v866h157v-883 q0 -313 -135 -459.5t-418 -146.5q-276 0 -411.5 143.5t-135.5 455.5z" />
<glyph unicode="&#x16d;" horiz-adv-x="1127" d="M121 0zM813 436v587h142v-1023h-138v192q-40 -106 -142.5 -161t-216.5 -55q-65 0 -117.5 15.5t-87 40t-60 63t-39 75.5t-21.5 87.5t-10 89t-2 89.5v587h142v-617q0 -158 49 -238.5t171 -80.5q75 0 135 25t95.5 62.5t59 86t32 92t8.5 83.5zM561 1183q-111 0 -192 67 t-84 188h116q0 -77 43 -114t117 -37t117 37t43 114h116q-3 -121 -84 -188t-192 -67z" />
<glyph unicode="&#x16e;" horiz-adv-x="1346" d="M123 0zM697 2033q-104 0 -162.5 -65t-58.5 -153t58 -151t163 -63q107 0 167 64t60 152t-59.5 152t-167.5 64zM574 1817q0 52 32.5 92t90.5 40t90.5 -40t32.5 -92t-32.5 -92.5t-90.5 -40.5t-90.5 40.5t-32.5 92.5zM123 574v890h160v-866q0 -94 9 -165t35 -136.5t69 -107.5 t113.5 -66.5t166.5 -24.5t166 24.5t112.5 66.5t68 107.5t34.5 136.5t9 165v866h157v-883q0 -313 -135 -459.5t-418 -146.5q-276 0 -411.5 143.5t-135.5 455.5z" />
<glyph unicode="&#x16f;" horiz-adv-x="1127" d="M121 0zM558 1592q-104 0 -162.5 -65t-58.5 -153t58 -151t163 -63q107 0 167 64t60 152t-59.5 152t-167.5 64zM435 1376q0 52 32.5 92t90.5 40t90.5 -40t32.5 -92t-32.5 -92.5t-90.5 -40.5t-90.5 40.5t-32.5 92.5zM813 436v587h142v-1023h-138v192q-40 -106 -142.5 -161 t-216.5 -55q-65 0 -117.5 15.5t-87 40t-60 63t-39 75.5t-21.5 87.5t-10 89t-2 89.5v587h142v-617q0 -158 49 -238.5t171 -80.5q75 0 135 25t95.5 62.5t59 86t32 92t8.5 83.5z" />
<glyph unicode="&#x170;" horiz-adv-x="1346" d="M123 0zM566 1933h189l-228 -320h-66zM864 1933h195l-257 -320h-73zM123 574v890h160v-866q0 -94 9 -165t35 -136.5t69 -107.5t113.5 -66.5t166.5 -24.5t166 24.5t112.5 66.5t68 107.5t34.5 136.5t9 165v866h157v-883q0 -313 -135 -459.5t-418 -146.5q-276 0 -411.5 143.5 t-135.5 455.5z" />
<glyph unicode="&#x171;" horiz-adv-x="1127" d="M121 0zM416 1492h189l-228 -320h-66zM714 1492h195l-257 -320h-73zM813 436v587h142v-1023h-138v192q-40 -106 -142.5 -161t-216.5 -55q-65 0 -117.5 15.5t-87 40t-60 63t-39 75.5t-21.5 87.5t-10 89t-2 89.5v587h142v-617q0 -158 49 -238.5t171 -80.5q75 0 135 25 t95.5 62.5t59 86t32 92t8.5 83.5z" />
<glyph unicode="&#x172;" horiz-adv-x="1346" d="M123 0zM729 0q-3 -6 -11.5 -24.5t-12 -26.5t-11.5 -25.5t-11.5 -27t-9.5 -24.5t-9 -25.5t-6 -23t-4.5 -23t-1.5 -19.5q0 -64 73 -64q13 0 35 5v-83q-32 -8 -65 -8q-76 0 -120 37t-44 91q0 62 43.5 137t83.5 104h71zM123 574v890h160v-866q0 -94 9 -165t35 -136.5 t69 -107.5t113.5 -66.5t166.5 -24.5t166 24.5t112.5 66.5t68 107.5t34.5 136.5t9 165v866h157v-883q0 -313 -135 -459.5t-418 -146.5q-276 0 -411.5 143.5t-135.5 455.5z" />
<glyph unicode="&#x173;" horiz-adv-x="1127" d="M121 0zM813 436v587h142v-1023h-138v192q-40 -106 -142.5 -161t-216.5 -55q-65 0 -117.5 15.5t-87 40t-60 63t-39 75.5t-21.5 87.5t-10 89t-2 89.5v587h142v-617q0 -158 49 -238.5t171 -80.5q75 0 135 25t95.5 62.5t59 86t32 92t8.5 83.5zM891 0q-3 -6 -11.5 -24.5 t-12 -26.5t-11.5 -25.5t-11.5 -27t-9.5 -24.5t-9 -25.5t-6 -23t-4.5 -23t-1.5 -19.5q0 -64 73 -64q13 0 35 5v-83q-32 -8 -65 -8q-76 0 -120 37t-44 91q0 62 43.5 137t83.5 104h71z" />
<glyph unicode="&#x178;" horiz-adv-x="1162" d="M0 0zM851 1806v-174h-166v174h166zM306 1806h166v-174h-166v174zM508 549l-512 915h158l428 -782l427 782h157l-512 -916v-548h-146v549z" />
<glyph unicode="&#x179;" horiz-adv-x="1176" d="M47 0zM709 1933h195l-308 -320h-92zM130 1356v108h1006v-81l-908 -1276h913l-7 -107h-1087v98l898 1258h-815z" />
<glyph unicode="&#x17a;" horiz-adv-x="878" d="M66 0zM527 1492h195l-308 -320h-92zM86 919v104h750v-95l-609 -825h607v-103h-768v94l601 825h-581z" />
<glyph unicode="&#x17b;" horiz-adv-x="1176" d="M47 0zM650 1593q-39 0 -67.5 18.5t-41.5 46t-13 60.5q0 50 32 87t90 37t90 -37t32 -87.5t-32 -87.5t-90 -37zM130 1356v108h1006v-81l-908 -1276h913l-7 -107h-1087v98l898 1258h-815z" />
<glyph unicode="&#x17c;" horiz-adv-x="878" d="M66 0zM500 1146q-39 0 -67.5 18.5t-41.5 46t-13 60.5q0 50 32 87t90 37t90 -37t32 -87.5t-32 -87.5t-90 -37zM86 919v104h750v-95l-609 -825h607v-103h-768v94l601 825h-581z" />
<glyph unicode="&#x17d;" horiz-adv-x="1176" d="M47 0zM745 1613h-195l-145 320h92l150 -228l151 228h92zM130 1356v108h1006v-81l-908 -1276h913l-7 -107h-1087v98l898 1258h-815z" />
<glyph unicode="&#x17e;" horiz-adv-x="878" d="M66 0zM581 1172h-195l-145 320h92l150 -228l151 228h92zM86 919v104h750v-95l-609 -825h607v-103h-768v94l601 825h-581z" />
<glyph unicode="&#x1c4;" horiz-adv-x="2576" d="M148 0zM1447 0zM2145 1613h-195l-145 320h92l150 -228l151 228h92zM1530 1356v108h1006v-81l-908 -1276h913l-7 -107h-1087v98l898 1258h-815zM653 1350h-359v-1236h303q155 0 259 33.5t168.5 110.5t92 192t27.5 287q0 154 -23 262.5t-78 190t-151.5 121t-238.5 39.5z M148 1464h504q159 0 274 -37.5t197.5 -122t123 -225t40.5 -341.5q0 -266 -70 -429t-209.5 -236t-362.5 -73h-497v1464zM706 1464zM700 1464zM700 1464zM700 1464z" />
<glyph unicode="&#x1c5;" horiz-adv-x="2278" d="M148 0zM1466 0zM1981 1172h-195l-145 320h92l150 -228l151 228h92zM1486 919v104h750v-95l-609 -825h607v-103h-768v94l601 825h-581zM653 1350h-359v-1236h303q155 0 259 33.5t168.5 110.5t92 192t27.5 287q0 154 -23 262.5t-78 190t-151.5 121t-238.5 39.5zM148 1464 h504q159 0 274 -37.5t197.5 -122t123 -225t40.5 -341.5q0 -266 -70 -429t-209.5 -236t-362.5 -73h-497v1464zM706 1464zM700 1464zM700 1464zM700 1464z" />
<glyph unicode="&#x1c7;" horiz-adv-x="1974" d="M148 0zM1041 334l130 35q31 -138 91 -207t175 -69q58 0 102 16.5t71.5 49.5t44.5 69.5t25 93t10.5 103.5t2.5 116v923h145v-920q0 -294 -92.5 -431.5t-320.5 -137.5q-313 0 -384 359zM1041 0h-893v1464h146v-1351h747v-113z" />
<glyph unicode="&#x1c8;" horiz-adv-x="1502" d="M148 0zM1234 -91v1114h142v-1035q0 -85 -7.5 -137t-30 -95t-66.5 -62t-115 -19q-92 0 -162 41l24 107q84 -31 119 -31q47 0 71.5 26t24.5 91zM1236 1242v179h141v-179h-141zM1041 0h-893v1464h146v-1351h747v-113z" />
<glyph unicode="&#x1ca;" horiz-adv-x="2445" d="M148 0zM1512 334l130 35q31 -138 91 -207t175 -69q58 0 102 16.5t71.5 49.5t44.5 69.5t25 93t10.5 103.5t2.5 116v923h145v-920q0 -294 -92.5 -431.5t-320.5 -137.5q-313 0 -384 359zM148 0v1464h163l903 -1243v393v850h129v-1464h-132l-930 1290v-415v-875h-133z" />
<glyph unicode="&#x1cb;" horiz-adv-x="1973" d="M148 0zM1705 -91v1114h142v-1035q0 -85 -7.5 -137t-30 -95t-66.5 -62t-115 -19q-92 0 -162 41l24 107q84 -31 119 -31q47 0 71.5 26t24.5 91zM1707 1242v179h141v-179h-141zM148 0v1464h163l903 -1243v393v850h129v-1464h-132l-930 1290v-415v-875h-133z" />
<glyph unicode="&#x1f1;" horiz-adv-x="2576" d="M148 0zM1530 1356v108h1006v-81l-908 -1276h913l-7 -107h-1087v98l898 1258h-815zM653 1350h-359v-1236h303q155 0 259 33.5t168.5 110.5t92 192t27.5 287q0 154 -23 262.5t-78 190t-151.5 121t-238.5 39.5zM148 1464h504q159 0 274 -37.5t197.5 -122t123 -225 t40.5 -341.5q0 -266 -70 -429t-209.5 -236t-362.5 -73h-497v1464zM706 1464zM700 1464zM700 1464zM700 1464z" />
<glyph unicode="&#x1f2;" horiz-adv-x="2278" d="M148 0zM1486 919v104h750v-95l-609 -825h607v-103h-768v94l601 825h-581zM653 1350h-359v-1236h303q155 0 259 33.5t168.5 110.5t92 192t27.5 287q0 154 -23 262.5t-78 190t-151.5 121t-238.5 39.5zM148 1464h504q159 0 274 -37.5t197.5 -122t123 -225t40.5 -341.5 q0 -266 -70 -429t-209.5 -236t-362.5 -73h-497v1464zM706 1464zM700 1464zM700 1464zM700 1464z" />
<glyph unicode="&#x1f4;" horiz-adv-x="1374" d="M114 0zM794 1933h195l-308 -320h-92zM735 1491q173 0 306 -86.5t195 -254.5l-122 -54q-103 278 -380 278q-245 0 -356 -162t-111 -491q0 -155 23.5 -268.5t75.5 -195.5t140 -123t213 -41q65 0 130.5 21.5t123.5 63t94.5 111t36.5 155.5v220h-372v125h516v-208l-10 -581 h-93l-32 191q-57 -95 -167.5 -155t-244.5 -60q-587 0 -587 746q0 202 44 351t126.5 240t194.5 134.5t256 43.5z" />
<glyph unicode="&#x1f5;" horiz-adv-x="1077" d="M94 0zM630 1492h195l-308 -320h-92zM818 543q0 98 -21 172.5t-51.5 116t-73 67t-79 33.5t-75.5 8q-73 0 -129 -34.5t-88.5 -93.5t-48.5 -130t-16 -152q0 -215 74.5 -332t202.5 -117q45 0 84 9.5t81 37.5t71.5 73.5t49 124.5t19.5 183v34zM527 -429q-266 0 -363 162l83 79 q82 -132 287 -132q143 0 213.5 91t70.5 257v102q-117 -154 -310 -154q-196 0 -305 151.5t-109 398.5q0 151 45.5 266.5t138.5 183.5t224 68q199 0 327 -153l8 132h114v-1003q0 -199 -109.5 -324t-314.5 -125z" />
<glyph unicode="&#x200;" horiz-adv-x="1218" d="M26 0zM213 1913h182l125 -320h-75zM511 1913h182l125 -320h-69zM26 0l486 1464h192l488 -1464h-150l-134 399h-608l-128 -399h-146zM603 1362q-15 -46 -49.5 -158.5t-50.5 -163.5l-169 -532h540l-170 533q-58 180 -101 321z" />
<glyph unicode="&#x201;" horiz-adv-x="1025" d="M90 0zM143 1464h182l125 -320h-75zM441 1464h182l125 -320h-69zM746 219q-173 -146 -332 -146q-190 0 -190 192q0 37 11 65t37.5 49.5t57.5 37t85 29t104 23t129 21.5l98 15v-286zM771 0h117v673q0 371 -376 371q-257 0 -380 -156q85 -80 85 -81q50 62 125.5 95t161.5 33 q132 0 187 -62.5t55 -229.5v-42l-99 -15q-87 -13 -130 -20.5t-114 -23t-106.5 -30t-82.5 -40t-69 -56t-38.5 -74t-16.5 -97.5q0 -128 85.5 -198.5t213.5 -70.5q194 0 365 140z" />
<glyph unicode="&#x202;" horiz-adv-x="1218" d="M26 0zM600 1866q111 0 192 -67t84 -188h-116q-2 72 -50 110.5t-110 38.5t-110 -38.5t-50 -110.5h-116q3 121 84 188t192 67zM26 0l486 1464h192l488 -1464h-150l-134 399h-608l-128 -399h-146zM603 1362q-15 -46 -49.5 -158.5t-50.5 -163.5l-169 -532h540l-170 533 q-58 180 -101 321z" />
<glyph unicode="&#x203;" horiz-adv-x="1025" d="M90 0zM510 1401q111 0 192 -67t84 -188h-116q-2 72 -50 110.5t-110 38.5t-110 -38.5t-50 -110.5h-116q3 121 84 188t192 67zM746 219q-173 -146 -332 -146q-190 0 -190 192q0 37 11 65t37.5 49.5t57.5 37t85 29t104 23t129 21.5l98 15v-286zM771 0h117v673 q0 371 -376 371q-257 0 -380 -156q85 -80 85 -81q50 62 125.5 95t161.5 33q132 0 187 -62.5t55 -229.5v-42l-99 -15q-87 -13 -130 -20.5t-114 -23t-106.5 -30t-82.5 -40t-69 -56t-38.5 -74t-16.5 -97.5q0 -128 85.5 -198.5t213.5 -70.5q194 0 365 140z" />
<glyph unicode="&#x204;" horiz-adv-x="1143" d="M148 0zM272 1913h182l125 -320h-75zM570 1913h182l125 -320h-69zM1128 0h-980v1464h969v-112h-823v-514h716v-115h-716v-610h834v-113z" />
<glyph unicode="&#x205;" d="M92 0zM140 1464h182l125 -320h-75zM438 1464h182l125 -320h-69zM532 1044q104 0 183.5 -36.5t127.5 -102t72 -151.5t24 -190q0 -34 -3 -60h-699q0 -87 17 -161.5t51.5 -134t94 -93.5t137.5 -34q101 0 166 46.5t92 130.5l110 -24q-23 -85 -81 -144.5t-130 -86t-153 -27.5 h-4q-113 0 -200.5 44t-140 119.5t-78.5 170t-26 202.5q0 239 116.5 385.5t323.5 146.5zM802 597q-1 164 -68 254t-206 90q-67 0 -120 -27t-87.5 -75t-54.5 -109t-26 -133h562z" />
<glyph unicode="&#x206;" horiz-adv-x="1143" d="M148 0zM638 1848q111 0 192 -67t84 -188h-116q-2 72 -50 110.5t-110 38.5t-110 -38.5t-50 -110.5h-116q3 121 84 188t192 67zM1128 0h-980v1464h969v-112h-823v-514h716v-115h-716v-610h834v-113z" />
<glyph unicode="&#x207;" d="M92 0zM527 1401q111 0 192 -67t84 -188h-116q-2 72 -50 110.5t-110 38.5t-110 -38.5t-50 -110.5h-116q3 121 84 188t192 67zM532 1044q104 0 183.5 -36.5t127.5 -102t72 -151.5t24 -190q0 -34 -3 -60h-699q0 -87 17 -161.5t51.5 -134t94 -93.5t137.5 -34q101 0 166 46.5 t92 130.5l110 -24q-23 -85 -81 -144.5t-130 -86t-153 -27.5h-4q-113 0 -200.5 44t-140 119.5t-78.5 170t-26 202.5q0 239 116.5 385.5t323.5 146.5zM802 597q-1 164 -68 254t-206 90q-67 0 -120 -27t-87.5 -75t-54.5 -109t-26 -133h562z" />
<glyph unicode="&#x208;" horiz-adv-x="464" d="M0 0zM-158 1913h182l125 -320h-75zM140 1913h182l125 -320h-69zM309 0h-146v1464h146v-1464z" />
<glyph unicode="&#x209;" horiz-adv-x="411" d="M0 0zM-175 1464h182l125 -320h-75zM123 1464h182l125 -320h-69zM140 0v1023h142v-1023h-142z" />
<glyph unicode="&#x20a;" horiz-adv-x="464" d="M0 0zM228 1848q111 0 192 -67t84 -188h-116q-2 72 -50 110.5t-110 38.5t-110 -38.5t-50 -110.5h-116q3 121 84 188t192 67zM309 0h-146v1464h146v-1464z" />
<glyph unicode="&#x20b;" horiz-adv-x="401" d="M0 0zM140 0v1023h142v-1023h-142zM199 1438q111 0 192 -67t84 -188h-116q-2 72 -50 110.5t-110 38.5t-110 -38.5t-50 -110.5h-116q3 121 84 188t192 67z" />
<glyph unicode="&#x20c;" horiz-adv-x="1449" d="M114 0zM337 1913h182l125 -320h-75zM635 1913h182l125 -320h-69zM723 1491q146 0 256.5 -42t191.5 -130t122.5 -233.5t41.5 -344.5q0 -400 -155 -583t-458 -183q-147 0 -257 42t-190 132t-120.5 238t-40.5 353q0 200 41.5 345.5t121.5 234t190.5 130t255.5 41.5z M722 1374q-104 0 -182.5 -29t-130 -81.5t-83.5 -132.5t-45.5 -174.5t-13.5 -215.5q0 -337 104 -492.5t352 -155.5q249 0 353 154t104 493q0 121 -13.5 216t-46 175t-84.5 132.5t-130.5 81.5t-183.5 29z" />
<glyph unicode="&#x20d;" horiz-adv-x="1064" d="M92 0zM158 1464h182l125 -320h-75zM456 1464h182l125 -320h-69zM533 1044q197 0 318 -135.5t121 -395.5q0 -258 -118.5 -397.5t-321.5 -139.5t-321.5 138.5t-118.5 395.5q0 262 121 398t320 136zM532 940q-84 0 -144 -36.5t-91.5 -100.5t-45.5 -135t-14 -155 q0 -67 8 -126t29 -116.5t53.5 -98.5t85 -66t120.5 -25q67 0 119.5 25t85 65.5t53.5 97.5t29 116t8 126q0 66 -8.5 125t-29.5 116t-53.5 97.5t-85 65.5t-119.5 25z" />
<glyph unicode="&#x20e;" horiz-adv-x="1449" d="M114 0zM723 1848q111 0 192 -67t84 -188h-116q-2 72 -50 110.5t-110 38.5t-110 -38.5t-50 -110.5h-116q3 121 84 188t192 67zM723 1491q146 0 256.5 -42t191.5 -130t122.5 -233.5t41.5 -344.5q0 -400 -155 -583t-458 -183q-147 0 -257 42t-190 132t-120.5 238t-40.5 353 q0 200 41.5 345.5t121.5 234t190.5 130t255.5 41.5zM722 1374q-104 0 -182.5 -29t-130 -81.5t-83.5 -132.5t-45.5 -174.5t-13.5 -215.5q0 -337 104 -492.5t352 -155.5q249 0 353 154t104 493q0 121 -13.5 216t-46 175t-84.5 132.5t-130.5 81.5t-183.5 29z" />
<glyph unicode="&#x20f;" horiz-adv-x="1064" d="M92 0zM534 1401q111 0 192 -67t84 -188h-116q-2 72 -50 110.5t-110 38.5t-110 -38.5t-50 -110.5h-116q3 121 84 188t192 67zM533 1044q197 0 318 -135.5t121 -395.5q0 -258 -118.5 -397.5t-321.5 -139.5t-321.5 138.5t-118.5 395.5q0 262 121 398t320 136zM532 940 q-84 0 -144 -36.5t-91.5 -100.5t-45.5 -135t-14 -155q0 -67 8 -126t29 -116.5t53.5 -98.5t85 -66t120.5 -25q67 0 119.5 25t85 65.5t53.5 97.5t29 116t8 126q0 66 -8.5 125t-29.5 116t-53.5 97.5t-85 65.5t-119.5 25z" />
<glyph unicode="&#x218;" horiz-adv-x="1216" d="M45 0zM645 0zM537 -100h200v-85q-5 -153 -19 -212q-27 -114 -118 -176l-49 62q26 20 52 79t28 139h-94v193zM657 0zM657 0zM657 0zM657 0zM618 1482q177 0 299.5 -59t209.5 -192l-108 -80q-59 104 -159 158.5t-221 54.5q-157 0 -256 -58t-99 -178q0 -47 21 -86t50.5 -64 t79 -49t89 -37t98.5 -32t91 -31q67 -26 110 -43.5t95 -43.5t84 -48.5t65 -54.5t50.5 -67t29 -80.5t11.5 -98.5q0 -197 -147.5 -307.5t-395.5 -110.5q-71 0 -140.5 12t-141 41t-128.5 73t-100.5 114t-59.5 158l123 53q45 -165 157.5 -245t298.5 -80q57 0 109 8.5t102.5 29.5 t87.5 52.5t59.5 82t22.5 114.5q0 41 -11 75t-23 58.5t-48 50.5t-57 40.5t-81 38.5t-89.5 34.5t-110.5 38.5q-13 5 -20 7q-178 62 -248 101q-161 89 -183 234q-3 24 -3 50q0 91 41 163t110.5 115.5t155 65.5t180.5 22z" />
<glyph unicode="&#x219;" horiz-adv-x="953" d="M67 0zM485 0zM377 -100h200v-85q-5 -153 -19 -212q-27 -114 -118 -176l-49 62q26 20 52 79t28 139h-94v193zM497 0zM497 0zM497 0zM497 0zM841 846q-97 -55 -97 -56q-34 78 -95 112.5t-161 34.5q-124 0 -188 -45t-64 -133q0 -35 13.5 -62t35 -44.5t58.5 -32t71.5 -22.5 t86.5 -18q174 -32 261.5 -99.5t87.5 -194.5q0 -151 -101 -230.5t-304 -79.5q-61 0 -117.5 12.5t-109 40t-92.5 78t-59 118.5l108 44q36 -98 100 -142t183 -44q263 0 263 176q0 96 -60 135.5t-253 79.5q-58 12 -97.5 24.5t-82 34.5t-68 50.5t-42 73.5t-16.5 104 q0 135 104.5 209t273.5 74q136 0 222 -45t139 -153z" />
<glyph unicode="&#x21a;" horiz-adv-x="1119" d="M9 0zM559 0zM451 -100h200v-85q-5 -153 -19 -212q-27 -114 -118 -176l-49 62q26 20 52 79t28 139h-94v193zM571 0zM571 0zM571 0zM571 0zM9 1352v113h1101v-113h-474v-1352h-153v1352h-474z" />
<glyph unicode="&#x21b;" horiz-adv-x="630" d="M38 0zM373 0zM265 -100h200v-85q-5 -153 -19 -212q-27 -114 -118 -176l-49 62q26 20 52 79t28 139h-94v193zM385 0zM385 0zM385 0zM385 0zM594 125l24 -93q-75 -48 -176 -48q-132 0 -191.5 80.5t-59.5 260.5v599h-153v99h162v327l133 37v-364h224v-99h-224v-663 q0 -170 138 -170q46 0 123 34z" />
<glyph unicode="&#x237;" horiz-adv-x="530" d="M262 -87v1110h142v-1035q0 -85 -7.5 -137t-30 -95t-66.5 -62t-115 -19q-77 0 -152 44l24 90q62 -23 109 -23q96 0 96 127z" />
<glyph unicode="&#x2c6;" horiz-adv-x="838" d="M327 1492h195l175 -320h-92l-181 218l-180 -218h-92z" />
<glyph unicode="&#x2c7;" horiz-adv-x="835" d="M523 1172h-195l-145 320h92l150 -228l151 228h92z" />
<glyph unicode="&#x2d8;" horiz-adv-x="805" d="M402 1183q-111 0 -192 67t-84 188h116q0 -77 43 -114t117 -37t117 37t43 114h116q-3 -121 -84 -188t-192 -67z" />
<glyph unicode="&#x2d9;" horiz-adv-x="539" d="M275 1301q-57 0 -89.5 37t-32.5 88q0 50 32.5 87t89.5 37t89.5 -37t32.5 -87q0 -51 -32.5 -88t-89.5 -37z" />
<glyph unicode="&#x2da;" horiz-adv-x="728" d="M364 1592q-104 0 -162.5 -65t-58.5 -153t58 -151t163 -63q107 0 167 64t60 152t-59.5 152t-167.5 64zM241 1376q0 52 32.5 92t90.5 40t90.5 -40t32.5 -92t-32.5 -92.5t-90.5 -40.5t-90.5 40.5t-32.5 92.5z" />
<glyph unicode="&#x2db;" horiz-adv-x="462" d="M315 0q-3 -6 -11.5 -24.5t-12 -26.5t-11.5 -25.5t-11.5 -27t-9.5 -24.5t-9 -25.5t-6 -23t-4.5 -23t-1.5 -19.5q0 -64 73 -64q13 0 35 5v-83q-32 -8 -65 -8q-76 0 -120 37t-44 91q0 62 43.5 137t83.5 104h71z" />
<glyph unicode="&#x2dc;" horiz-adv-x="798" d="M269 1288q21 -1 119.5 -43.5t151.5 -42.5t94 38t41 120q0 11 -2 35h-97q0 -96 -39 -96q-21 0 -131 46t-153 46q-128 0 -128 -150q0 -26 2 -41h96q0 43 13.5 65.5t32.5 22.5z" />
<glyph unicode="&#x2dd;" horiz-adv-x="745" d="M192 1492h189l-228 -320h-66zM490 1492h195l-257 -320h-73z" />
<glyph unicode="&#x307;" horiz-adv-x="539" d="M269 1268q-39 0 -67.5 18.5t-41.5 46t-13 60.5q0 50 32 87t90 37t90 -37t32 -87.5t-32 -87.5t-90 -37z" />
<glyph unicode="&#x30f;" horiz-adv-x="744" d="M74 1492h182l125 -320h-75zM372 1492h182l125 -320h-69z" />
<glyph unicode="&#x311;" horiz-adv-x="805" d="M402 1438q111 0 192 -67t84 -188h-116q-2 72 -50 110.5t-110 38.5t-110 -38.5t-50 -110.5h-116q3 121 84 188t192 67z" />
<glyph unicode="&#x326;" horiz-adv-x="409" d="M210 -168h-110v168h200v-160q0 -85 -38 -161t-72 -76l-47 22q64 48 67 207z" />
<glyph unicode="&#x3bc;" horiz-adv-x="1119" d="M842 1023h142v-1023h-120l-21 159q-106 -186 -319 -186q-141 0 -242 114v-311h-147v1247h147v-587q0 -160 58 -254.5t180 -94.5q75 0 134 26.5t93.5 65.5t56.5 89t30 91t8 77v587z" />
<glyph unicode="&#x2013;" horiz-adv-x="1024" d="M135 334v86h754v-86h-754z" />
<glyph unicode="&#x2014;" horiz-adv-x="2048" d="M135 334v86h1778v-86h-1778z" />
<glyph unicode="&#x2018;" horiz-adv-x="330" d="M145 1469q0 -1 34 -19.5t35 -18.5q-48 -80 -63 -121t-15 -110l94 -13v-195h-200v97v63t2 58t6 60t12.5 53t20.5 54.5t31 46.5t43 45z" />
<glyph unicode="&#x2019;" horiz-adv-x="330" d="M100 1292v172h200q-1 -23 -1 -75.5t-1 -78.5t-4.5 -70.5t-12.5 -72.5t-24 -63t-39.5 -62t-57.5 -51l-49 63q26 24 51.5 82t27.5 138l-22 4q-23 4 -46 9z" />
<glyph unicode="&#x201a;" horiz-adv-x="436" d="M128 -81v174h192q-4 -170 -16 -237q-30 -157 -145 -238l-49 63q26 24 51.5 82t27.5 138q-61 17 -61 18z" />
<glyph unicode="&#x201c;" horiz-adv-x="630" d="M459 1473l49 -63q-28 -26 -53.5 -79.5t-27.5 -134.5l103 -13v-188h-200v89q0 12 1 50.5t2 52t3 46.5t6 48t10 42t15.5 43t22 37t30 37.5t39.5 32.5zM165 1473l49 -63q-28 -26 -53.5 -79.5t-27.5 -133.5l97 -14v-188h-200v89q0 61 1 93t8 82.5t20.5 82.5t40 68t65.5 63z " />
<glyph unicode="&#x201d;" horiz-adv-x="631" d="M401 1292v172h200q0 -18 -1 -66t-2 -68.5t-4.5 -63t-9 -65t-16 -57.5t-26 -58t-38 -49t-51.5 -46l-51 63q26 22 52 80.5t28 138.5zM100 1292v172h201q0 -22 -0.5 -75.5t-1.5 -79t-4.5 -70.5t-13 -72.5t-24.5 -62.5t-39.5 -62t-57.5 -51l-50 63q26 23 52 81.5t28 138.5 l-22 4q-23 4 -46 9z" />
<glyph unicode="&#x201e;" horiz-adv-x="744" d="M434 -81v174h194q-4 -170 -16 -237q-30 -157 -145 -238l-49 63q26 24 51.5 82t27.5 138q-63 17 -63 18zM126 -81v174h194q-4 -170 -16 -237q-30 -157 -145 -238l-49 63q26 24 51.5 82t27.5 138q-1 0 -3 0.5t-7 2l-10 3t-11.5 3t-12 3t-10 3l-7.5 2.5z" />
<glyph unicode="&#x2039;" horiz-adv-x="528" d="M51 552v197l384 301v-141l-286 -259l286 -257v-142z" />
<glyph unicode="&#x203a;" horiz-adv-x="528" d="M435 552v197l-384 301v-141l286 -259l-286 -257v-142z" />
<glyph unicode="&#x2074;" horiz-adv-x="1441" d="M590 924v-152h115v152h100v82h-100v459h-146l-320 -473v-68h351zM353 1006l237 351v-351h-237z" />
<glyph unicode="&#x20ac;" horiz-adv-x="1275" d="M1154 340l-122 39q-18 -50 -32 -82t-34.5 -68t-44.5 -57.5t-57 -40t-76.5 -27.5t-98.5 -9q-188 0 -287.5 122t-126.5 369h366v86h-373q-1 17 -1 64t1 60h373v86h-367q12 119 39.5 207.5t76 154t123 99t175.5 33.5q58 0 102.5 -9t77 -30t54.5 -44t40 -62t28.5 -72 t24.5 -86l134 31q-25 111 -68 187.5t-103.5 120t-131.5 62.5t-164 19q-242 0 -386 -151.5t-175 -459.5h-134v-86h128q-1 -13 -1 -60t1 -64h-128v-86h135q33 -310 180 -459.5t384 -149.5q109 0 187.5 23t131.5 72.5t86.5 112t62.5 155.5z" />
<glyph unicode="&#x2122;" horiz-adv-x="1847" d="M116 1370v95h641v-95h-265v-754h-114v754h-262zM938 616v849h143l250 -589q42 98 128 294t128 294h131v-848h-104v651l-241 -535h-93l-234 538v-654h-108z" />
<glyph unicode="&#x2212;" horiz-adv-x="1024" d="M803 670v86h-668v-86h668z" />
<glyph horiz-adv-x="1119" d="M9 0zM456 -268v164h200v-179q0 -80 -34 -140.5t-102 -60.5q-21 0 -42 9v65q30 -8 37 -8q22 0 31 31t9 119h-99zM9 1352v113h1101v-113h-474v-1352h-153v1352h-474z" />
<glyph horiz-adv-x="444" d="M208 0zM100 -100h200v-85q-5 -153 -19 -212q-27 -114 -118 -176l-49 62q26 20 52 79t28 139h-94v193zM220 0zM220 0zM220 0zM220 0z" />
<glyph horiz-adv-x="630" d="M38 0zM290 -263v164h200v-179q0 -80 -34 -140.5t-102 -60.5q-21 0 -42 9v65q30 -8 37 -8q22 0 31 31t9 119h-99zM594 125l24 -93q-75 -48 -176 -48q-132 0 -191.5 80.5t-59.5 260.5v599h-153v99h162v327l133 37v-364h224v-99h-224v-663q0 -170 138 -170q46 0 123 34z" />
<glyph horiz-adv-x="630" d="M0 0z" />
</font>
</defs>
</svg>
